Алиса в стране чудес / Alice in Wonderland(Тим Бёртон)[2010 г., фэнтези, приключения, семейный, BD Remux]

Ответить на тему
 

InD1gO ®

Стаж: 6 лет 8 месяцев

Сообщений: 81

Симпатии: 3

Алиса в стране чудес / Alice in Wonderland
Год выхода: 2010
Страна: США
Жанр: фэнтези, приключения, семейный
Продолжительность: 01:48:34
Перевод: Дублированный
Режиссер: Тим Бёртон / Tim Burton
Сценарий: Линда Вулвертон, Льюис Кэрролл
Продюсер: Каттерли Фроуенфельдер, Дерек Фрэй, Крис Лебензон
Оператор: Дариуш Вольски
Композитор: Дэнни Элфмен
В ролях: Миа Васиковска / Mia Wasikowska, Джонни Депп / Johnny Depp, Энн Хэтэуэй / Anne Hathaway, Стивен Фрай / Stephen Fry, Хелена Бонэм Картер / Helena Bonham Carter, Майкл Шин / Michael Sheen, Алан Рикман / Alan Rickman, Криспин Гловер / Crispin Glover, Кристофер Ли / Christopher Lee, Фрэнсис де ла Тур / Frances de la Tour, Джералдин Джеймс / Geraldine James, Мэтт Лукас / Matt Lucas, Тим Пиготт-Смит / Tim Pigott-Smith, Джемма Пауэлл / Jemma Powell
Описание: Жизнь 19-летней Алисы Кингсли принимает неожиданный оборот. На викторианской вечеринке, устроенной в её честь, Алисе делает предложение Хэмиш, богатый, но глупый сын лорда и леди Эскот. Не дав ответа, девушка убегает и идёт за кроликом, замеченным ею на лужайке. Кролик как кролик, вот только он одет в камзол и всё время смотрит на карманные часы.
Алиса гонится за Белым Кроликом через весь луг и видит, как он исчезает в кроличьей норе. Затем, неожиданно, Алиса падает туда сама, летит вниз по странному, сказочному туннелю и приземляется в круглом зале со множеством дверей. Выпив из бутылки с надписью «ВЫПЕЙ МЕНЯ», она уменьшается в размерах, а откусив от пирожного с надписью «СЪЕШЬ МЕНЯ» — вырастает. Наконец, миновав череду злоключений, Алиса попадает через одну из дверей в чудесный фантастический мир, который его обитатели называют Подземной страной.
Там её ждёт целый парад колоритных персонажей: хвастливая Соня, сумасшедший Шляпник, глумливый Чеширский Кот, накурившаяся кальяном гусеница по имени Абессалом, жутковатая Белая Королева и её злобная сестра, Королева Червей, вздорная и раздражительная правительница Подземной страны.
Качество: BD Remux
Формат: MKV
Видео: 1920x1080, 23.976 fps, H.264, 24 Mbps
Аудио: AC3 (6 ch), 48 kHz, 640 kbps - Русский дублированный
Аудио: AC3 (6 ch), 48 kHz, 640 kbps - Украинский дублированный
Аудио: DTS (6 ch), 48 kHz, 1536 kbps - оригинальная английская дорожка
Субтитры:русские (полные и форсированные),украинские,английские,французские

Медиа инфо:

Format : Matroska
File size : 20.4 GiB
Duration : 1h 48mn
Overall bit rate : 26.8 Mbps
Movie name : Алиса в стране чудес
Encoded date : UTC 2010-06-14 13:46:27
Writing application : mkvmerge v2.9.7 ('Tenderness') built on Jul 1 2009 18:43:35
Writing library : libebml v0.7.7 + libmatroska v0.8.1
Video
ID : 1
Format : AVC
Format/Info : Advanced Video Codec
Format profile : [email protected]
Format settings, CABAC : Yes
Format settings, ReFrames : 4 frames
Codec ID : V_MPEG4/ISO/AVC
Duration : 1h 48mn
Bit rate mode : Variable
Bit rate : 23.5 Mbps
Maximum bit rate : 31.0 Mbps
Width : 1 920 pixels
Height : 1 080 pixels
Display aspect ratio : 16:9
Frame rate : 23.976 fps
Color space : YUV
Chroma subsampling : 4:2:0
Bit depth : 8 bits
Scan type : Progressive
Bits/(Pixel*Frame) : 0.473
Stream size : 17.8 GiB (88%)
Language : English
Color primaries : BT.709-5, BT.1361, IEC 61966-2-4, SMPTE RP177
Transfer characteristics : BT.709-5, BT.1361
Matrix coefficients : BT.709-5, BT.1361, IEC 61966-2-4 709, SMPTE RP177
Audio #1
ID : 2
Format : AC-3
Format/Info : Audio Coding 3
Mode extension : CM (complete main)
Codec ID : A_AC3
Duration : 1h 48mn
Bit rate mode : Constant
Bit rate : 640 Kbps
Channel(s) : 6 channels
Channel positions : Front: L C R, Side: L R, LFE
Sampling rate : 48.0 KHz
Bit depth : 16 bits
Compression mode : Lossy
Stream size : 497 MiB (2%)
Title : AC3
Language : Russian
Audio #2
ID : 3
Format : AC-3
Format/Info : Audio Coding 3
Mode extension : CM (complete main)
Codec ID : A_AC3
Duration : 1h 48mn
Bit rate mode : Constant
Bit rate : 640 Kbps
Channel(s) : 6 channels
Channel positions : Front: L C R, Side: L R, LFE
Sampling rate : 48.0 KHz
Bit depth : 16 bits
Compression mode : Lossy
Stream size : 497 MiB (2%)
Title : AC3
Language : Ukrainian
Audio #3
ID : 4
Format : DTS
Format/Info : Digital Theater Systems
Format profile : ES
Codec ID : A_DTS
Duration : 1h 48mn
Bit rate mode : Constant
Bit rate : 1 510 Kbps
Channel(s) : 6 channels
Channel positions : Front: L C R, Side: L R, LFE
Sampling rate : 48.0 KHz
Bit depth : 24 bits
Compression mode : Lossy
Stream size : 1.15 GiB (6%)
Title : DTS
Language : English
Text #1
ID : 5
Format : UTF-8
Codec ID : S_TEXT/UTF8
Codec ID/Info : UTF-8 Plain Text
Title : forced
Language : Russian
Text #2
ID : 6
Format : UTF-8
Codec ID : S_TEXT/UTF8
Codec ID/Info : UTF-8 Plain Text
Language : Russian
Text #3
ID : 7
Format : UTF-8
Codec ID : S_TEXT/UTF8
Codec ID/Info : UTF-8 Plain Text
Language : Ukrainian
Text #4
ID : 8
Format : UTF-8
Codec ID : S_TEXT/UTF8
Codec ID/Info : UTF-8 Plain Text
Language : English
Text #5
ID : 9
Format : UTF-8
Codec ID : S_TEXT/UTF8
Codec ID/Info : UTF-8 Plain Text
Language : French
Menu
00:00:00.000 : :1. Dreamers
00:04:24.890 : :2. Miss Kingsleigh Is Distracted
00:10:36.886 : :3. Down the Rabbit Hole
00:18:13.509 : :4. The Wrong Alice
00:24:44.316 : :5. The Red Queen
00:28:41.345 : :6. Cheshire, The Hare and the Hatter
00:36:51.126 : :7. "I Make The Path"
00:46:15.731 : :8. Um from Umbradge
00:52:44.787 : :9. Freeing the Vorpal Sword
01:04:05.050 : :10. Escape to Marmoreal
01:10:02.198 : :11. Mutiny
01:15:36.490 : :12. The White Queen's Champion
01:23:39.264 : :13. Frabjous Day
01:34:12.689 : :14. Returning Home
01:36:58.354 : :15. Alice's Decision
01:40:12.131 : :16. End Credits

Скриншоты





Последний раз редактировалось: InD1gO (2011-09-17 17:20), всего редактировалось 1 раз

Создавать темы 16-Авг-2011 20:29

[Профиль]  [ЛС] 

Vika89

Стаж: 6 лет 2 месяца

Сообщений: 90

Симпатии: 3

InD1gO, спасибки вам за релиз. aj

Создавать темы 16-Авг-2011 21:20

[Профиль]  [ЛС] 

tima89_21

Стаж: 7 лет 6 месяцев

Сообщений: 93

супер

Создавать темы 16-Авг-2011 21:40

[Профиль]  [ЛС] 

Polinbek

Стаж: 6 лет 8 месяцев

Сообщений: 4

pachemu razmer .mkv tak balshoy? [img]?[/img]
20,36GB eto slishkm balshoy j.
Добавлено спустя 1 минута 48 секунд:
pachemu razmer .mkv tak balshoy? ai
20,36GB eto slishkm balshoy j. ao


Последний раз редактировалось: Polinbek (2011-08-16 22:06), всего редактировалось 1 раз

Создавать темы 16-Авг-2011 22:06

[Профиль]  [ЛС] 

Vika89

Стаж: 6 лет 2 месяца

Сообщений: 90

Симпатии: 3

Polinbek, салют, это уже несжатый .m2ts формат контейнер .mkv

Создавать темы 16-Авг-2011 23:00

[Профиль]  [ЛС] 
Показать сообщения:    
Ответить на тему

Текущее время: 25-Сен 02:21

Часовой пояс: UTC + 5



Вы не можете начинать темы
Вы не можете отвечать на сообщения
Вы не можете редактировать свои сообщения
Вы не можете удалять свои сообщения
Вы не можете голосовать в опросах
Вы не можете прикреплять файлы к сообщениям
Вы не можете скачивать файлы