Ранго / Rango [EXTENDED] (Гор Вербински) [2011 г., мультфильм, HDRip] | ЛИЦЕНЗИЯ!

Страницы :  1, 2  След.

Ответить на тему
 

mansurjon ®

Стаж: 7 лет 5 месяцев

Сообщений: 103

Симпатии: 3

Ранго / Rango-
Год выпуска: 2011
Страна: США, Castle Rock Entertainment
Жанр: мультфильм
Продолжительность: 01:51:50
Перевод: Дублированное [ЛИЦЕНЗИЯ]
Режиссер: Гор Вербински
В ролях: Джонни Депп, Айла Фишер, Эбигейл Бреслин, Нед Битти, Альфред Молина, Билл Найи, Стивен Рут, Гарри Дин Стэнтон, Тимоти Олифант, Рэй Уинстоун и др.-Описание: Ранго — хамелеон, который живет в террариуме и считает себя героем, которому, к сожалению, никак не удается проявить свое бесстрашие. Но когда он внезапно оказывается в городке Грязь, у него появляется такая возможность. Ранго провозглашает себя борцом за справедливость и начинает вести себя как шериф на Диком Западе. Он еще не знает, что быть «хорошим парнем» в этих краях не самая завидная участь…
Доп. информация:
IMDB рейтинг: 6.8/10 (6,726 голосов)
КиноПоиск рейтинг: 7.485 (8,109 голосов)-Качество: HDRip
Формат: AVI
Видео кодек: XviD
Аудио кодек: AC3
Видео: Xvid 720x304 23.98fps 1359kbps
Аудио: Dolby AC3 48000Hz 6ch 384kbp
s

MediaInfo

General
Complete name : Rаngo.2011.D.HDRip.avi
Format : AVI
Format/Info : Audio Video Interleave
File size : 1.37 GiB
Duration : 1h 51mn
Overall bit rate : 1 753 Kbps
Writing application : VirtualDubMod 1.5.4.1 (build 2178/release)
Writing library : VirtualDubMod build 2178/release
Video
ID : 0
Format : MPEG-4 Visual
Format profile : Advanced [email protected]
Format settings, BVOP : Yes
Format settings, QPel : No
Format settings, GMC : No warppoints
Format settings, Matrix : Custom
Codec ID : XVID
Codec ID/Hint : XviD
Duration : 1h 51mn
Bit rate : 1 359 Kbps
Width : 720 pixels
Height : 304 pixels
Display aspect ratio : 2.35:1
Frame rate : 23.976 fps
Resolution : 8 bits
Colorimetry : 4:2:0
Scan type : Progressive
Bits/(Pixel*Frame) : 0.259
Stream size : 1.06 GiB (78%)
Writing library : XviD 58
Audio
ID : 1
Format : AC-3
Format/Info : Audio Coding 3
Codec ID : 2000
Duration : 1h 51mn
Bit rate mode : Constant
Bit rate : 384 Kbps
Channel(s) : 6 channels
Channel positions : Front: L C R, Surround: L R, LFE
Sampling rate : 48.0 KHz
Stream size : 307 MiB (22%)
Alignment : Split accross interleaves
Interleave, duration : 42 ms (1.00 video frame)
Interleave, preload duration : 500 ms

Скриншоты






Последний раз редактировалось: mansurjon (2011-10-27 18:31), всего редактировалось 3 раз(а)

Создавать темы 27-Авг-2011 02:30

[Профиль]  [ЛС] 

jokerbek

Стаж: 6 лет 10 месяцев

Сообщений: 184

Симпатии: 9

ну пасмотремм спс автору ay

Создавать темы 27-Авг-2011 09:00

[Профиль]  [ЛС] 

titton

Стаж: 7 лет 3 месяца

Сообщений: 69

Симпатии: 2

sps az

Создавать темы 27-Авг-2011 09:43

[Профиль]  [ЛС] 

Kraus

Стаж: 6 лет 10 месяцев

Сообщений: 68

Симпатии: 1

Вау спасибо az Неужели вышла лицуха на мультфильм интересно а когда будет Тачки 2?
Добавлено спустя 33 минуты 33 секунды:
Народ добавьте скорости,встаньте на раздачу.


Последний раз редактировалось: Kraus (2011-08-27 10:32), всего редактировалось 1 раз

Создавать темы 27-Авг-2011 10:32

[Профиль]  [ЛС] 

emilsky

Стаж: 7 лет 3 месяца

Сообщений: 2237

Симпатии: 610

mansurjon
Ты просто монстр!!! Раздаёшь с 6 компьютеров:)

Создавать темы 27-Авг-2011 11:04

[Профиль]  [ЛС] 

NetHacker1

Стаж: 6 лет 6 месяцев

Сообщений: 3

Спосиба автору!!! ay

Создавать темы 27-Авг-2011 11:54

[Профиль]  [ЛС] 

crumb

Стаж: 7 лет

Сообщений: 160

Симпатии: 9

mansurjon ты бы не мог выложить отдельно звуковую дорожку ?

Создавать темы 27-Авг-2011 11:57

[Профиль]  [ЛС] 

mansurjon ®

Стаж: 7 лет 5 месяцев

Сообщений: 103

Симпатии: 3

mansurjon
Ты просто монстр!!! Раздаёшь с 6 компьютеров:)
2-3 раза отрубался инет, изза это так показывает ag

Создавать темы 27-Авг-2011 12:17

[Профиль]  [ЛС] 

ЧЕЛОВЕК

Стаж: 6 лет 4 месяца

Сообщений: 11

почему у скриншотов размеры меньше чем заявлено в описании фильма. aq

Создавать темы 27-Авг-2011 12:48

[Профиль]  [ЛС] 

mansurjon ®

Стаж: 7 лет 5 месяцев

Сообщений: 103

Симпатии: 3

ой сорри это ж майфэйс
не замечая вставил ссылку на эскиз изображения ag

Создавать темы 27-Авг-2011 16:55

[Профиль]  [ЛС] 

ЧЕЛОВЕК

Стаж: 6 лет 4 месяца

Сообщений: 11

без сомнения качаем! спс

Создавать темы 27-Авг-2011 19:02

[Профиль]  [ЛС] 

Тима_7771

Стаж: 6 лет 4 месяца

Сообщений: 81

Симпатии: 4

у мня есть етот мульт! помогу с раздачей!

Создавать темы 28-Авг-2011 15:53

[Профиль]  [ЛС] 

crumb

Стаж: 7 лет

Сообщений: 160

Симпатии: 9

mansurjon или Тима_7771 выложите пожулуйста отдельно звуковую дорожку

Создавать темы 28-Авг-2011 16:00

[Профиль]  [ЛС] 

Arsik

Стаж: 6 лет 11 месяцев

Сообщений: 6

Спосибо

Создавать темы 27-Окт-2011 09:16

[Профиль]  [ЛС] 

семуель

Стаж: 5 лет 4 месяца

Сообщений: 5

спасибо автору за фильм!

Создавать темы 21-Июн-2012 16:44

[Профиль]  [ЛС] 
Показать сообщения:    
Ответить на тему

Текущее время: 17-Окт 12:44

Часовой пояс: UTC + 5



Вы не можете начинать темы
Вы не можете отвечать на сообщения
Вы не можете редактировать свои сообщения
Вы не можете удалять свои сообщения
Вы не можете голосовать в опросах
Вы не можете прикреплять файлы к сообщениям
Вы не можете скачивать файлы