(Alternative Rock) Red - End of Silence - 2006, FLAC (image + .cue), lossless

Ответить на тему
 

IQBOT ®

Стаж: 6 лет 10 месяцев

Сообщений: 449

Симпатии: 81

Red - End of Silence-Страна: США
Жанр: Alternative Rock
Год выпуска: 2006
Формат: FLAC (image + .cue)
Битрейт аудио: lossless
Продолжительность: 00:46:52
Трэклист:
01 - Intro
02 - Breathe Into Me
03 - Let Go
04 - Already Over
05 - Lost
06 - Pieces
07 - Break Me Down
08 - Wasting Time
09 - Gave It All Away
10 - Hide
11 - Already Over. Pt. 2

Лог

EAC extraction logfile from 5. October 2007, 23:46 for CD
RED / End Of Silence
Used drive : Compaq DVD-ROM DVD-117 Adapter: 1 ID: 0
Read mode : Secure with NO C2, accurate stream, disable cache
Read offset correction : 102
Overread into Lead-In and Lead-Out : No
Used output format : C:\Program Files\Exact Audio Copy\flac.exe (User Defined Encoder)
128 kBit/s
Additional command line options : -8 -A tukey(0.25) -A gauss(0.1875) -b 4096 -V -T "artist=%a" -T "title=%t" -T "album=%g" -T "date=%y" -T "tracknumber=%n" -T "genre=%m" %s --sector-align
Other options :
Fill up missing offset samples with silence : Yes
Delete leading and trailing silent blocks : No
Installed external ASPI interface
Track 1
Filename C:\My Music\Red (2006) - End Of Silence\01 - RED - Intro (End Of Silence).wav
Pre-gap length 0:00:02.00
Peak level 66.6 %
Track quality 100.0 %
Test CRC 538DA3F9
Copy CRC 538DA3F9
Copy OK
Track 2
Filename C:\My Music\Red (2006) - End Of Silence\02 - RED - Breathe Into Me.wav
Peak level 96.6 %
Track quality 100.0 %
Test CRC ED400FDC
Copy CRC ED400FDC
Copy OK
Track 3
Filename C:\My Music\Red (2006) - End Of Silence\03 - RED - Let Go.wav
Peak level 96.6 %
Track quality 99.9 %
Test CRC 4A6F3C1F
Copy CRC 4A6F3C1F
Copy OK
Track 4
Filename C:\My Music\Red (2006) - End Of Silence\04 - RED - Already Over.wav
Peak level 96.6 %
Track quality 100.0 %
Test CRC 59DAF785
Copy CRC 59DAF785
Copy OK
Track 5
Filename C:\My Music\Red (2006) - End Of Silence\05 - RED - Lost.wav
Peak level 96.6 %
Track quality 100.0 %
Test CRC 9F7F950F
Copy CRC 9F7F950F
Copy OK
Track 6
Filename C:\My Music\Red (2006) - End Of Silence\06 - RED - Pieces.wav
Peak level 96.6 %
Track quality 100.0 %
Test CRC C15BE6B4
Copy CRC C15BE6B4
Copy OK
Track 7
Filename C:\My Music\Red (2006) - End Of Silence\07 - RED - Break Me Down.wav
Peak level 96.6 %
Track quality 100.0 %
Test CRC A2F5F3B3
Copy CRC A2F5F3B3
Copy OK
Track 8
Filename C:\My Music\Red (2006) - End Of Silence\08 - RED - Wasting Time.wav
Peak level 96.6 %
Track quality 99.9 %
Test CRC C6CC01B7
Copy CRC C6CC01B7
Copy OK
Track 9
Filename C:\My Music\Red (2006) - End Of Silence\09 - RED - Gave It All Away.wav
Peak level 96.6 %
Track quality 100.0 %
Test CRC 93B5ADEF
Copy CRC 93B5ADEF
Copy OK
Track 10
Filename C:\My Music\Red (2006) - End Of Silence\10 - RED - Hide.wav
Peak level 96.6 %
Track quality 100.0 %
Test CRC DB934DB8
Copy CRC DB934DB8
Copy OK
Track 11
Filename C:\My Music\Red (2006) - End Of Silence\11 - RED - Already Over, Pt. 2.wav
Pre-gap length 0:00:03.45
Peak level 94.6 %
Track quality 100.0 %
Test CRC B7AD95D6
Copy CRC B7AD95D6
Copy OK
No errors occured
End of status report

Создавать темы 31-Авг-2011 01:02

[Профиль]  [ЛС] 

iApple

Стаж: 5 лет 10 месяцев

Сообщений: 66

Симпатии: 15

А остальные альбомы есть во FLAC?

Создавать темы 04-Фев-2013 15:48

[Профиль]  [ЛС] 
Показать сообщения:    
Ответить на тему

Текущее время: 17-Дек 20:59

Часовой пояс: UTC + 5



Вы не можете начинать темы
Вы не можете отвечать на сообщения
Вы не можете редактировать свои сообщения
Вы не можете удалять свои сообщения
Вы не можете голосовать в опросах
Вы не можете прикреплять файлы к сообщениям
Вы не можете скачивать файлы