Задание / The Task (Алекс Оруэлл) [2010 г., Ужасы, HDRip] Профессиональный (полное дублирование)

Ответить на тему
 

boy200007 ®

Стаж: 6 лет 11 месяцев

Сообщений: 74

Задание / The Task
Год выпуска: 2010
Страна: США, After Dark Films
Жанр: Ужасы
Продолжительность: 01:34:28
Перевод: Профессиональный (полное дублирование)
Режиссер: Алекс Оруэлл
Продюсер: Кортни Соломон, Стефани Калеб, Лоурен Ито
В ролях: Александра Стаден, Виктор МакГуайр, Адам Рэйнер, Антония Кэмпбелл-Хьюджес, Эшли Мулрон, Амара Каран, Том Пэйн, Марк Пикеринг, Тексас Бэттл, Сэм Стокман
Описание: Новое реалити-шоу под названием «Задание» вынуждает шестерых молодых участников выполнять квесты, находясь на территории заброшенной тюрьмы. Понятно, что за большой денежный выигрыш они вскоре будут готовы перегрызть друг другу глотки прямо в прямом эфире, чем искусно пользуется неизвестный, устроивший им ночь ТВ-террора…
IMDB рейтинг: 3.9/10 (324 голосов)
Кинопоиск рейтинг: 4.423 (431 голоса)
Дата мировой премьеры: 28 января 2011
Дата российской премьеры: 14 июля 2011, «Top Film Distribution»

Доп. информация:

Формат : AVI
Формат/Информация : Audio Video Interleave
Размер файла : 1,37 Гбайт
Продолжительность : 1 ч. 34 м.
Общий поток : 2069 Кбит/сек
Название фильма : Zadanie.2010.P.HDRip.NNM-CLUB
Библиотека кодирования : VirtualDubMod 1.5.4.1 (build 2178/release)
Видео
Идентификатор : 0
Формат : MPEG-4 Visual
Профиль формата : Advanced [email protected]
Параметр BVOP формата : 2
Параметр QPel формата : Нет
Параметр GMC формата : Без точки перехода
Параметр матрицы формата : Выборочная
Идентификатор кодека : XVID
Идентификатор кодека/Подсказка : XviD
Продолжительность : 1 ч. 34 м.
Битрейт : 1676 Кбит/сек
Ширина : 720 пикс.
Высота : 400 пикс.
Соотношение сторон : 16:9
Частота кадров : 23,976 кадр/сек
Цветовое пространство : YUV
Подвыборка цветности : 4:2:0
Битовая глубина : 8 бит
Тип развёртки : Прогрессивная
Метод сжатия : С потерями
Бит/(Пиксели*Кадры) : 0.243
Размер потока : 1,11 Гбайт (81%)
Библиотека кодирования : XviD 1.2.0.dev47 (UTC 2006-11-01)
Аудио
Идентификатор : 1
Формат : AC-3
Формат/Информация : Audio Coding 3
Расширение режима : CM (complete main)
Идентификатор кодека : 2000
Продолжительность : 1 ч. 34 м.
Вид битрейта : Постоянный
Битрейт : 384 Кбит/сек
Каналы : 6 каналов
Расположение каналов : Front: L C R, Side: L R, LFE
Частота : 48,0 КГц
Битовая глубина : 16 бит
Метод сжатия : С потерями
Задержка видео : 4 мс.
Размер потока : 259 Мбайт (19%)
Выравнивание : Разделение по промежуткам
Продолжительность промежутка : 42 мс. (1,00 видеокадр)
Время предзагрузки промежутка : 500 ms
Качество: HDRip
Формат: AVI
Видео кодек: XviD
Аудио кодек: AC3
Видео: ~1676 Кбит/сек 720 x 400 (1.800) at 23.976 fps
Аудио: AC3 5.1 384 Кбит/сек

Скриншоты



Последний раз редактировалось: boy200007 (2011-09-02 15:35), всего редактировалось 5 раз(а)

Создавать темы 02-Сен-2011 05:43

[Профиль]  [ЛС] 

nikita

Стаж: 7 лет

Сообщений: 82

Симпатии: 4

boy200007.спасибо ab

Создавать темы 02-Сен-2011 07:36

[Профиль]  [ЛС] 

Ярыч

Стаж: 6 лет 11 месяцев

Сообщений: 35

Симпатии: 1

судя по названию файла Zadanie.2010.P.HDRip[Tas-IX.NET].avi 1.36 GB (1465845760) Это не дубляж , а профессиональный многоголосый

Создавать темы 02-Сен-2011 08:01

[Профиль]  [ЛС] 

xassi

Стаж: 6 лет 9 месяцев

Сообщений: 81

народ!!! смотр етот релиз!!!! ну ни очин!!

_________________
Подпись отключена за нарушение правил форума

Создавать темы 02-Сен-2011 08:19

[Профиль]  [ЛС] 

Топик был перенесен из форума Фильмы за 2011 в форум Фильмы за 2010

Sonatrek

Создавать темы 02-Сен-2011 15:30

 

Senat

Стаж: 6 лет 8 месяцев

Сообщений: 251

ну как фильм отпишетесь?

Создавать темы 20-Сен-2011 22:04

[Профиль]  [ЛС] 

kiborg911

Стаж: 6 лет 8 месяцев

Сообщений: 58

Симпатии: 3

Очередная неудачная пародия на Пилу?

Создавать темы 19-Ноя-2011 05:38

[Профиль]  [ЛС] 
Показать сообщения:    
Ответить на тему

Текущее время: 24-Окт 16:34

Часовой пояс: UTC + 5



Вы не можете начинать темы
Вы не можете отвечать на сообщения
Вы не можете редактировать свои сообщения
Вы не можете удалять свои сообщения
Вы не можете голосовать в опросах
Вы не можете прикреплять файлы к сообщениям
Вы не можете скачивать файлы