(Grunge) Nirvana — Official Live Albums (Официальные релизы, 3 альбома) - 1992, 1994, 1996, FLAC (image + .cue), lossless

Ответить на тему
 

IQBOT ®

Стаж: 6 лет 9 месяцев

Сообщений: 449

Симпатии: 81

Nirvana — Official Live Albums (Официальные релизы, 3 альбома)

Страна: США
Жанр: Grunge
Год выпуска: 1994
Формат: FLAC (image + .cue)
Битрейт аудио: lossless
Продолжительность: 02:54:44

1994 - Unplugged In New York


Tracklist:
01. About A Girl (Cobain) - 3:38
02. Come As You Are (Cobain) - 4:13
03. Jesus Doesnt Want Me For A Sunbeam (Kelly/McKee) - 4:37
04. The Man Who Sold The World (Bowie) - 4:21
05. Pennyroyal Tea (Cobain) - 3:40
06. Dumb (Cobain) - 2:52
07. Polly (Cobain) - 3:16
08. On A Plain (Cobain) - 3:44
09. Something In The Way (Cobain) - 4:01
10. Plateau (Kirkwood) - 3:38
11. Oh Me (Kirkwood) - 3:26
12. Lake Of Fire - 2:55
13. All Apologies (Cobain) - 4:23
14. Where Did You Sleep Last Night (Leadbelly) - 5:06

Лог

Отчёт EAC об извлечении, выполненном 26. апреля 2007, 9:18 для диска:
Nirvana / Unplugged in New York
Дисковод: _NEC DVD_RW ND-3540A Adapter: 2 ID: 2
Режим чтения: Достоверный (C2: нет, Точный поток: да, Отключение кэша: да)
Комбинированное смещение чтения/записи: 0
Способность читать области Lead-in и Lead-out : Нет
Выходной формат: Внутренние WAV-операции
44.100 Гц; 16 бит; стерео
Другие параметры:
Заполнение пропущенных сэмплов тишиной : Да
Удаление блоков с тишиной в начале и конце : Нет
Встроенный Win32-интерфейс для Win NT/2000
Характеристики диапазона извлечения и сообщения об ошибках
Выбранный диапазон
Имя файла D:\!movie\Release\Nirvana-Unplugged_in_New_York-[EAC_APE_CUE][rutracker.org][AllMusic][by_Pb]\Nirvana - Unplugged in New York.wav
Пиковый уровень 96.2 %
Качество диапазона 100.0 %
CRC D6035FF4
Копирование... OK
Ошибок не произошло
Конец отчёта

1996 - From The Muddy Banks Of The Wishkah


Tracklist:
01. Intro (December 3, 1989; London Astoria, London, UK) - 0:52
02. School (November 25, 1991; Paradiso, Amsterdam, Netherlands) - 2:40
03. Drain you (December 28, 1991; O'Brien Pavilion, Del Mar, California) - 3:34
04. Aneurysm (December 28, 1991; O'Brien Pavilion, California, CA) - 4:31
05. Smells like teen spirit (December 28, 1991; O'Brien Pavilion, Del Mar, California CA) - 4:47
06. Been a son (November 25, 1991; Paradiso, Amsterdam, Netherlands) - 2:07
07. Lithium (November 25, 1991; Paradiso, Amsterdam, Netherlands) - 4:10
08. Sliver (November 10, 1993; Springfield Civic Center, Springfield, MA) - 1:55
09. Spank thru (November 19, 1991; Castle Theatre, Rome, Italy) - 3:10
10. Scentless apprentice (December 13, 1993; Pier 48, Seattle, WA) - 3:31
11. Heart-shaped box (December 30, 1993; Great Western Forum, Inglewood, CA) - 4:41
12. Milk it (January 7, 1994; Seattle Center Arena, Seattle, Washington) - 3:45
13. Negative creep (October 31, 1991; Paramount Theatre, Seattle, Washington) - 2:43
14. Polly (December 3, 1989; London Astoria, London, United Kingdom) - 2:30
15. Breed (December 3, 1989;London Astoria, London, United Kingdom) - 3:28
16. Tourette's (August 30, 1992; Reading Festival, Reading, UK) - 1:55
17. Blew (November 25, 1991;Paradiso, Amsterdam, Netherlands) - 3:36

Лог

EAC extraction logfile from 31. October 2006, 13:31 for CD
Nirvana / From The Muddy Banks Of The Wishkah
Used drive : PIONEER DVD-ROM DVD-120 Adapter: 0 ID: 1
Read mode : Secure with NO C2, accurate stream, disable cache
Read offset correction : 691
Overread into Lead-In and Lead-Out : No
Used output format : C:\Program Files\FLAC\flac.exe (User Defined Encoder)
320 kBit/s
Additional command line options : -V -8 -T "artist=%a" -T "title=%t" -T "album=%g" -T "date=%y" -T "tracknumber=%n" -T "genre=%m" %s
Other options :
Fill up missing offset samples with silence : Yes
Delete leading and trailing silent blocks : No
Installed external ASPI interface
Track 1
Filename E:\Media\Audio\Nirvana - 1996 - From The Muddy Banks Of The Wishkah\01 - Intro.wav
Pre-gap length 0:00:02.42
Peak level 97.9 %
Track quality 100.0 %
Test CRC F95B534D
Copy CRC F95B534D
Copy OK
Track 2
Filename E:\Media\Audio\Nirvana - 1996 - From The Muddy Banks Of The Wishkah\02 - School.wav
Pre-gap length 0:00:00.04
Peak level 97.8 %
Track quality 100.0 %
Test CRC A2107AB3
Copy CRC A2107AB3
Copy OK
Track 3
Filename E:\Media\Audio\Nirvana - 1996 - From The Muddy Banks Of The Wishkah\03 - Drain You.wav
Pre-gap length 0:00:05.97
Peak level 97.8 %
Track quality 100.0 %
Test CRC 29A4B36B
Copy CRC 29A4B36B
Copy OK
Track 4
Filename E:\Media\Audio\Nirvana - 1996 - From The Muddy Banks Of The Wishkah\04 - Aneurysm.wav
Pre-gap length 0:00:00.02
Peak level 97.8 %
Track quality 99.9 %
Test CRC 8A13C46A
Copy CRC 8A13C46A
Copy OK
Track 5
Filename E:\Media\Audio\Nirvana - 1996 - From The Muddy Banks Of The Wishkah\05 - Smells Like Teen Spirit.wav
Pre-gap length 0:00:02.69
Peak level 97.8 %
Track quality 100.0 %
Test CRC 63E1FC1D
Copy CRC 63E1FC1D
Copy OK
Track 6
Filename E:\Media\Audio\Nirvana - 1996 - From The Muddy Banks Of The Wishkah\06 - Been A Son.wav
Pre-gap length 0:00:06.60
Peak level 98.8 %
Track quality 100.0 %
Test CRC 562F07AA
Copy CRC 562F07AA
Copy OK
Track 7
Filename E:\Media\Audio\Nirvana - 1996 - From The Muddy Banks Of The Wishkah\07 - Lithium.wav
Pre-gap length 0:00:00.04
Peak level 97.9 %
Track quality 100.0 %
Test CRC 716CCA5A
Copy CRC 716CCA5A
Copy OK
Track 8
Filename E:\Media\Audio\Nirvana - 1996 - From The Muddy Banks Of The Wishkah\08 - Sliver.wav
Pre-gap length 0:00:03.36
Peak level 99.4 %
Track quality 100.0 %
Test CRC DE034C36
Copy CRC DE034C36
Copy OK
Track 9
Filename E:\Media\Audio\Nirvana - 1996 - From The Muddy Banks Of The Wishkah\09 - Spank Thru.wav
Pre-gap length 0:00:00.04
Peak level 98.1 %
Track quality 100.0 %
Test CRC 86FB5DC2
Copy CRC 86FB5DC2
Copy OK
Track 10
Filename E:\Media\Audio\Nirvana - 1996 - From The Muddy Banks Of The Wishkah\10 - Scentless Apprentice.wav
Pre-gap length 0:00:03.13
Peak level 98.9 %
Track quality 100.0 %
Test CRC D5DD840B
Copy CRC D5DD840B
Copy OK
Track 11
Filename E:\Media\Audio\Nirvana - 1996 - From The Muddy Banks Of The Wishkah\11 - Heart-Shaped Box.wav
Pre-gap length 0:00:05.64
Peak level 99.4 %
Track quality 100.0 %
Test CRC 38CFE468
Copy CRC 38CFE468
Copy OK
Track 12
Filename E:\Media\Audio\Nirvana - 1996 - From The Muddy Banks Of The Wishkah\12 - Milk It.wav
Pre-gap length 0:00:00.04
Peak level 97.8 %
Track quality 100.0 %
Test CRC 0E4EB7F5
Copy CRC 0E4EB7F5
Copy OK
Track 13
Filename E:\Media\Audio\Nirvana - 1996 - From The Muddy Banks Of The Wishkah\13 - Negative Creep.wav
Pre-gap length 0:00:05.50
Peak level 100.0 %
Track quality 99.9 %
Test CRC B9B5C306
Copy CRC B9B5C306
Copy OK
Track 14
Filename E:\Media\Audio\Nirvana - 1996 - From The Muddy Banks Of The Wishkah\14 - Polly.wav
Pre-gap length 0:00:00.04
Peak level 98.8 %
Track quality 100.0 %
Test CRC 33072496
Copy CRC 33072496
Copy OK
Track 15
Filename E:\Media\Audio\Nirvana - 1996 - From The Muddy Banks Of The Wishkah\15 - Breed.wav
Pre-gap length 0:00:02.76
Peak level 97.9 %
Track quality 100.0 %
Test CRC E9A4B8AE
Copy CRC E9A4B8AE
Copy OK
Track 16
Filename E:\Media\Audio\Nirvana - 1996 - From The Muddy Banks Of The Wishkah\16 - tourette's.wav
Pre-gap length 0:00:16.02
Peak level 97.9 %
Track quality 100.0 %
Test CRC 6BD17EBD
Copy CRC 6BD17EBD
Copy OK
Track 17
Filename E:\Media\Audio\Nirvana - 1996 - From The Muddy Banks Of The Wishkah\17 - Blew.wav
Pre-gap length 0:00:00.04
Peak level 99.4 %
Track quality 100.0 %
Test CRC F9A3FBCF
Copy CRC F9A3FBCF
Copy OK
No errors occured
End of status report


2009 - Live at Reading


Tracklist:
01. Breed (3:12)
02. Drain You (3:38)
03. Aneurysm (4:35)
04. School (2:43)
05. Sliver (2:06)
06. In Bloom (4:36)
07. Come as you are (3:36)
08. Lithium (4:22)
09. About a girl (2:52)
10. Tourette's (1:51)
11. Polly (2:49)
12. Lounge Act (2:37)
13. Smells like teen spirit (4:45)
14. On a plain (3:00)
15. Negative creep (2:52)
16. Been a son (2:13)
17. All Apologies (3:10)
18. Blew (3:20)
19. Dumb (2:32)
20. Stay away (3:33)
21. Spank Thru (3:07)
22. The money will roll right in (2:17)
23. D-7 (3:44)
24. Territorial Pissings (4:30)

Лог

Exact Audio Copy V0.99 prebeta 5 from 4. May 2009
EAC extraction logfile from 2. November 2009, 12:13
Nirvana / Live at Reading
Used drive : DVD 16X Adapter: 0 ID: 0
Read mode : Secure
Utilize accurate stream : Yes
Defeat audio cache : Yes
Make use of C2 pointers : No
Read offset correction : 6
Overread into Lead-In and Lead-Out : No
Fill up missing offset samples with silence : Yes
Delete leading and trailing silent blocks : No
Null samples used in CRC calculations : Yes
Used interface : Native Win32 interface for Win NT & 2000
Gap handling : Appended to previous track
Used output format : User Defined Encoder
Selected bitrate : 768 kBit/s
Quality : High
Add ID3 tag : No
Command line compressor : C:\Program Files\FLAC\flac.exe
Additional command line options : -V -8 -T "artist=%a" -T "title=%t" -T "album=%g" -T "date=%y" -T "tracknumber=%n" -T "genre=%m" %s
TOC of the extracted CD
Track | Start | Length | Start sector | End sector
---------------------------------------------------------
1 | 0:00.00 | 3:12.06 | 0 | 14405
2 | 3:12.06 | 3:38.33 | 14406 | 30788
3 | 6:50.39 | 4:35.02 | 30789 | 51415
4 | 11:25.41 | 2:43.21 | 51416 | 63661
5 | 14:08.62 | 2:06.09 | 63662 | 73120
6 | 16:14.71 | 4:36.12 | 73121 | 93832
7 | 20:51.08 | 3:36.25 | 93833 | 110057
8 | 24:27.33 | 4:21.61 | 110058 | 129693
9 | 28:49.19 | 2:51.72 | 129694 | 142590
10 | 31:41.16 | 1:50.43 | 142591 | 150883
11 | 33:31.59 | 2:48.47 | 150884 | 163530
12 | 36:20.31 | 2:36.59 | 163531 | 175289
13 | 38:57.15 | 4:45.14 | 175290 | 196678
14 | 43:42.29 | 3:00.22 | 196679 | 210200
15 | 46:42.51 | 2:52.33 | 210201 | 223133
16 | 49:35.09 | 2:13.32 | 223134 | 233140
17 | 51:48.41 | 3:09.64 | 233141 | 247379
18 | 54:58.30 | 3:19.54 | 247380 | 262358
19 | 58:18.09 | 2:32.30 | 262359 | 273788
20 | 60:50.39 | 3:32.70 | 273789 | 289758
21 | 64:23.34 | 3:06.65 | 289759 | 303773
22 | 67:30.24 | 2:16.42 | 303774 | 314015
23 | 69:46.66 | 3:43.62 | 314016 | 330802
24 | 73:30.53 | 4:29.62 | 330803 | 351039
Track 1
Filename D:\Music\FLAC\Nirvana\Live at Reading\Nirvana - 1992 - Live at Reading\01 - Breed.wav
Pre-gap length 0:00:02.00
Peak level 99.7 %
Track quality 100.0 %
Test CRC CE29220A
Copy CRC CE29220A
Track not present in AccurateRip database
Copy OK
Track 2
Filename D:\Music\FLAC\Nirvana\Live at Reading\Nirvana - 1992 - Live at Reading\02 - Drain You.wav
Peak level 99.7 %
Track quality 100.0 %
Test CRC 67FFFC9D
Copy CRC 67FFFC9D
Track not present in AccurateRip database
Copy OK
Track 3
Filename D:\Music\FLAC\Nirvana\Live at Reading\Nirvana - 1992 - Live at Reading\03 - Aneurysm.wav
Peak level 99.4 %
Track quality 100.0 %
Test CRC D189647D
Copy CRC D189647D
Track not present in AccurateRip database
Copy OK
Track 4
Filename D:\Music\FLAC\Nirvana\Live at Reading\Nirvana - 1992 - Live at Reading\04 - School.wav
Peak level 99.3 %
Track quality 100.0 %
Test CRC 26035857
Copy CRC 26035857
Track not present in AccurateRip database
Copy OK
Track 5
Filename D:\Music\FLAC\Nirvana\Live at Reading\Nirvana - 1992 - Live at Reading\05 - Sliver.wav
Peak level 99.7 %
Track quality 100.0 %
Test CRC EF9E26CB
Copy CRC EF9E26CB
Track not present in AccurateRip database
Copy OK
Track 6
Filename D:\Music\FLAC\Nirvana\Live at Reading\Nirvana - 1992 - Live at Reading\06 - In Bloom.wav
Peak level 99.4 %
Track quality 100.0 %
Test CRC DE7D7126
Copy CRC DE7D7126
Track not present in AccurateRip database
Copy OK
Track 7
Filename D:\Music\FLAC\Nirvana\Live at Reading\Nirvana - 1992 - Live at Reading\07 - Come as you are.wav
Peak level 99.3 %
Track quality 100.0 %
Test CRC AE2993E4
Copy CRC AE2993E4
Track not present in AccurateRip database
Copy OK
Track 8
Filename D:\Music\FLAC\Nirvana\Live at Reading\Nirvana - 1992 - Live at Reading\08 - Lithium.wav
Peak level 100.0 %
Track quality 100.0 %
Test CRC 2698E117
Copy CRC 2698E117
Track not present in AccurateRip database
Copy OK
Track 9
Filename D:\Music\FLAC\Nirvana\Live at Reading\Nirvana - 1992 - Live at Reading\09 - About a girl.wav
Peak level 99.8 %
Track quality 100.0 %
Test CRC D50AF0BC
Copy CRC D50AF0BC
Track not present in AccurateRip database
Copy OK
Track 10
Filename D:\Music\FLAC\Nirvana\Live at Reading\Nirvana - 1992 - Live at Reading\10 - Tourette's.wav
Peak level 99.7 %
Track quality 99.9 %
Test CRC F6D857D1
Copy CRC F6D857D1
Track not present in AccurateRip database
Copy OK
Track 11
Filename D:\Music\FLAC\Nirvana\Live at Reading\Nirvana - 1992 - Live at Reading\11 - Polly.wav
Peak level 99.0 %
Track quality 100.0 %
Test CRC 92BA1489
Copy CRC 92BA1489
Track not present in AccurateRip database
Copy OK
Track 12
Filename D:\Music\FLAC\Nirvana\Live at Reading\Nirvana - 1992 - Live at Reading\12 - Lounge Act.wav
Peak level 99.9 %
Track quality 100.0 %
Test CRC EDED0475
Copy CRC EDED0475
Track not present in AccurateRip database
Copy OK
Track 13
Filename D:\Music\FLAC\Nirvana\Live at Reading\Nirvana - 1992 - Live at Reading\13 - Smells like teen spirit.wav
Peak level 100.0 %
Track quality 100.0 %
Test CRC A1521D6A
Copy CRC A1521D6A
Track not present in AccurateRip database
Copy OK
Track 14
Filename D:\Music\FLAC\Nirvana\Live at Reading\Nirvana - 1992 - Live at Reading\14 - On a plain.wav
Peak level 100.0 %
Track quality 99.9 %
Test CRC E7A32E5D
Copy CRC E7A32E5D
Track not present in AccurateRip database
Copy OK
Track 15
Filename D:\Music\FLAC\Nirvana\Live at Reading\Nirvana - 1992 - Live at Reading\15 - Negative creep.wav
Peak level 99.8 %
Track quality 100.0 %
Test CRC 86B4DFAF
Copy CRC 86B4DFAF
Track not present in AccurateRip database
Copy OK
Track 16
Filename D:\Music\FLAC\Nirvana\Live at Reading\Nirvana - 1992 - Live at Reading\16 - Been a son.wav
Peak level 100.0 %
Track quality 100.0 %
Test CRC 5855D100
Copy CRC 5855D100
Track not present in AccurateRip database
Copy OK
Track 17
Filename D:\Music\FLAC\Nirvana\Live at Reading\Nirvana - 1992 - Live at Reading\17 - All Apologies.wav
Peak level 100.0 %
Track quality 100.0 %
Test CRC 2D2BACDA
Copy CRC 2D2BACDA
Track not present in AccurateRip database
Copy OK
Track 18
Filename D:\Music\FLAC\Nirvana\Live at Reading\Nirvana - 1992 - Live at Reading\18 - Blew.wav
Peak level 100.0 %
Track quality 100.0 %
Test CRC 393D27AD
Copy CRC 393D27AD
Track not present in AccurateRip database
Copy OK
Track 19
Filename D:\Music\FLAC\Nirvana\Live at Reading\Nirvana - 1992 - Live at Reading\19 - Dumb.wav
Peak level 99.1 %
Track quality 99.9 %
Test CRC E89873D9
Copy CRC E89873D9
Track not present in AccurateRip database
Copy OK
Track 20
Filename D:\Music\FLAC\Nirvana\Live at Reading\Nirvana - 1992 - Live at Reading\20 - Stay away.wav
Peak level 100.0 %
Track quality 100.0 %
Test CRC B176CF14
Copy CRC B176CF14
Track not present in AccurateRip database
Copy OK
Track 21
Filename D:\Music\FLAC\Nirvana\Live at Reading\Nirvana - 1992 - Live at Reading\21 - Spank Thru.wav
Peak level 100.0 %
Track quality 100.0 %
Test CRC 4173BF21
Copy CRC 4173BF21
Track not present in AccurateRip database
Copy OK
Track 22
Filename D:\Music\FLAC\Nirvana\Live at Reading\Nirvana - 1992 - Live at Reading\22 - The money will roll right in.wav
Peak level 100.0 %
Track quality 100.0 %
Test CRC B6F803D5
Copy CRC B6F803D5
Track not present in AccurateRip database
Copy OK
Track 23
Filename D:\Music\FLAC\Nirvana\Live at Reading\Nirvana - 1992 - Live at Reading\23 - D-7.wav
Peak level 100.0 %
Track quality 100.0 %
Test CRC 91B23B4C
Copy CRC 91B23B4C
Track not present in AccurateRip database
Copy OK
Track 24
Filename D:\Music\FLAC\Nirvana\Live at Reading\Nirvana - 1992 - Live at Reading\24 - Territorial Pissings.wav
Peak level 100.0 %
Track quality 100.0 %
Test CRC 97EF8722
Copy CRC 97EF8722
Track not present in AccurateRip database
Copy OK
None of the tracks are present in the AccurateRip database
No errors occurred
End of status report



Последний раз редактировалось: IQBOT (2015-02-22 18:26), всего редактировалось 3 раз(а)

Создавать темы 05-Сен-2011 08:24

[Профиль]  [ЛС] 

McFLY

Стаж: 5 лет 7 месяцев

Сообщений: 658

Симпатии: 22

Последний концерт Курта 1994 - Unplugged In New York - можно слушать часами, а песни до сих пор актуальны. Эх, обожаю! Спасибо!

Создавать темы 10-Окт-2012 18:04

[Профиль]  [ЛС] 

Diednoth11

Стаж: 5 лет 8 месяцев

Сообщений: 16

Симпатии: 2

На 99,8 останавливается, песня Something in the way из папки Unplugged не докачивает. Исправьте! =)

Создавать темы 20-Фев-2015 20:59

[Профиль]  [ЛС] 

Diednoth11

Стаж: 5 лет 8 месяцев

Сообщений: 16

Симпатии: 2

+В альбоме From the muddy banks не один плеер не считывает песни: Lithium и Polly
В альбоме Unplugged: Very Ape и Oh Me

Создавать темы 20-Фев-2015 21:23

[Профиль]  [ЛС] 

IQBOT ®

Стаж: 6 лет 9 месяцев

Сообщений: 449

Симпатии: 81

Были проблемы с хэшированием, просьба обновить торрент-файл.

Создавать темы 22-Фев-2015 18:27

[Профиль]  [ЛС] 

Diednoth11

Стаж: 5 лет 8 месяцев

Сообщений: 16

Симпатии: 2

Всё отлично, но что делать с нерабочими синглами?

Создавать темы 25-Фев-2015 14:55

[Профиль]  [ЛС] 
Показать сообщения:    
Ответить на тему

Текущее время: 22-Окт 15:05

Часовой пояс: UTC + 5



Вы не можете начинать темы
Вы не можете отвечать на сообщения
Вы не можете редактировать свои сообщения
Вы не можете удалять свои сообщения
Вы не можете голосовать в опросах
Вы не можете прикреплять файлы к сообщениям
Вы не можете скачивать файлы