Тор / Thor (Кеннет Брана) [2011 г., Боевик, фэнтези, драма, приключения, BDRip 720p] :: ЛИЦЕНЗИЯ!

Страницы :  1, 2  След.

Ответить на тему
 

Mixer City ®

Стаж: 6 лет 9 месяцев

Сообщений: 754

Симпатии: 63

Тор / Thor :: ЛИЦЕНЗИЯ!--
Год выпуска :: 2011
Страна :: США
Жанр :: Боевик, фэнтези, драма, приключения
Продолжительность :: 01:54:40
Перевод :: Профессиональный (полное дублирование) :: ЛИЦЕНЗИЯ!
Языки :: Русский + Английский
Субтитры :: Английские--Режиссер :: Кеннет Брана--В ролях :: Крис Хемсворт, Натали Портман, Энтони Хопкинс, Том Хиддлстон, Стеллан Скарсгард, Кэт Деннингс, Кларк Грегг, Идрис Эльба, Колм Фиор, Рэй Стивенсон и др.--Описание :: Эпическое приключение происходит как на нашей планете Земля, так и в вымышленном королевстве богов Асгарде. В центре истории — Могучий Тор, сильный, но высокомерный воин, чьи безрассудные поступки возрождают древнюю войну в Асгарде. Тора отправляют в ссылку на Землю, лишают сил и заставляют жить среди обычных людей в качестве наказания. Тор узнает, сколько требуется сил, чтобы стать настоящим героем, когда самый опасный злодей его мира направляет темные силы поглотить Землю.--IMDb рейтинг :: 7.4 (64 466 голосов)
КиноПоиск рейтинг :: 7.194 (15 099 голосов)--Качество :: BDRip 720p
Формат :: MKV
Видео кодек :: H.264/AVC
Аудио кодек :: AC3
Видео :: 1280x544 , 2 213 Kbps
Аудио 1 :: Русский - 6 ch , 48.0 KHz , 448 Kbps
Аудио 2 :: Английский - 2 ch , 48.0 KHz , 192 Kbps
Субтитры :: Английские

Media Info

General
Unique ID : 239372905653520530261493061558156324865 (0xB4158B70A0A536AF9B51F74F9282F001)
Complete name : Thor.2011.D.BDRip.[Mixer.City].mkv
Format : Matroska
Format version : Version 2
File size : 2.33 GiB
Duration : 1h 54mn
Overall bit rate : 2 911 Kbps
Movie name : Тор / Thor (2011) BDRip-AVC от FireBit - firebit.org
Encoded date : UTC 2011-09-10 12:52:44
Writing application : mkvmerge v4.4.0 ('Die Wiederkehr') сборка от Oct 31 2010 21:52:48
Writing library : libebml v1.0.0 + libmatroska v1.0.0
Video
ID : 1
Format : AVC
Format/Info : Advanced Video Codec
Format profile : [email protected]
Format settings, CABAC : Yes
Format settings, ReFrames : 5 frames
Muxing mode : Header stripping
Codec ID : V_MPEG4/ISO/AVC
Duration : 1h 54mn
Bit rate : 2 213 Kbps
Width : 1 280 pixels
Height : 544 pixels
Display aspect ratio : 2.35:1
Frame rate : 23.976 fps
Color space : YUV
Chroma subsampling : 4:2:0
Bit depth : 8 bits
Scan type : Progressive
Bits/(Pixel*Frame) : 0.133
Stream size : 1.77 GiB (76%)
Title : http://firebit.org
Language : English
Audio #1
ID : 2
Format : AC-3
Format/Info : Audio Coding 3
Mode extension : CM (complete main)
Muxing mode : Header stripping
Codec ID : A_AC3
Duration : 1h 54mn
Bit rate mode : Constant
Bit rate : 448 Kbps
Channel(s) : 6 channels
Channel positions : Front: L C R, Side: L R, LFE
Sampling rate : 48.0 KHz
Bit depth : 16 bits
Compression mode : Lossy
Delay relative to video : 18ms
Stream size : 367 MiB (15%)
Title : http://firebit.org
Language : Russian
Audio #2
ID : 3
Format : AC-3
Format/Info : Audio Coding 3
Mode extension : CM (complete main)
Muxing mode : Header stripping
Codec ID : A_AC3
Duration : 1h 54mn
Bit rate mode : Constant
Bit rate : 192 Kbps
Channel(s) : 2 channels
Channel positions : Front: L R
Sampling rate : 48.0 KHz
Bit depth : 16 bits
Compression mode : Lossy
Delay relative to video : 15ms
Stream size : 157 MiB (7%)
Title : http://firebit.org
Language : English
Text #1
ID : 4
Format : UTF-8
Codec ID : S_TEXT/UTF8
Codec ID/Info : UTF-8 Plain Text
Title : http://firebit.org
Language : English
Text #2
ID : 5
Format : UTF-8
Codec ID : S_TEXT/UTF8
Codec ID/Info : UTF-8 Plain Text
Title : http://firebit.org
Language : English
Text #3
ID : 6
Format : UTF-8
Codec ID : S_TEXT/UTF8
Codec ID/Info : UTF-8 Plain Text
Title : http://firebit.org
Language : English

Скриншоты





Последний раз редактировалось: Mixer City (2011-12-26 02:54), всего редактировалось 2 раз(а)

Создавать темы 11-Сен-2011 16:03

[Профиль]  [ЛС] 

Mixer City ®

Стаж: 6 лет 9 месяцев

Сообщений: 754

Симпатии: 63

Качаем не стесняемся, раздаю ещё пару часиков, а потом с утра.

Создавать темы 11-Сен-2011 23:07

[Профиль]  [ЛС] 

all

Стаж: 6 лет 4 месяца

Сообщений: 49

Mixer City
А можешь отдельно выложить англ. звуковую дорожку? ah

Создавать темы 12-Сен-2011 00:13

[Профиль]  [ЛС] 

Mixer City ®

Стаж: 6 лет 9 месяцев

Сообщений: 754

Симпатии: 63

Mixer City
А можешь отдельно выложить англ. звуковую дорожку?
Постараюсь
Добавлено спустя 5 часов 23 минуты 25 секунд:
all на вот, держи:

Английская звуковая дорожка

ССЫЛКА


Последний раз редактировалось: Mixer City (2011-09-12 16:33), всего редактировалось 1 раз

Создавать темы 12-Сен-2011 16:33

[Профиль]  [ЛС] 

all

Стаж: 6 лет 4 месяца

Сообщений: 49

Mixer City
Спасибо ay ar

Создавать темы 12-Сен-2011 18:28

[Профиль]  [ЛС] 

Tolyan

Стаж: 6 лет 9 месяцев

Сообщений: 25

Симпатии: 1

Я ток впиндюшил русскую дублированную дорогу в файл
А оказываеться уже такое есть ab

Создавать темы 12-Сен-2011 20:06

[Профиль]  [ЛС] 

Mixer City ®

Стаж: 6 лет 9 месяцев

Сообщений: 754

Симпатии: 63

Спасибо
А оказываеться уже такое есть
Ага.
Я ток впиндюшил русскую дублированную дорогу в файл
Там трудно впиндюрить, рассинхрон был большой, я 2 часа на слух определял. Получилось лучше оригинала ;)

Создавать темы 12-Сен-2011 23:43

[Профиль]  [ЛС] 

all

Стаж: 6 лет 4 месяца

Сообщений: 49

рассинхрон ужасный , но можно сделать

Создавать темы 13-Сен-2011 00:50

[Профиль]  [ЛС] 

Mixer City ®

Стаж: 6 лет 9 месяцев

Сообщений: 754

Симпатии: 63

рассинхрон ужасный , но можно сделать
Я ж говорю на слух 2 часа определял, но мне не впервой, так что всё окей.
В этой раздаче дубляж сочетается лучше той другой раздачи на трекере, сам проверял. У меня чуть точнее вышло.

Создавать темы 13-Сен-2011 02:59

[Профиль]  [ЛС] 

Mixer City ®

Стаж: 6 лет 9 месяцев

Сообщений: 754

Симпатии: 63

Активннее люди, хороший ведь фильм то.

Создавать темы 14-Сен-2011 03:03

[Профиль]  [ЛС] 

Aziz1314

Стаж: 7 лет 2 месяца

Сообщений: 331

Симпатии: 13

Оличный фильм , спасибо Макс !!!!!

Создавать темы 17-Сен-2011 17:39

[Профиль]  [ЛС] 

Mixer City ®

Стаж: 6 лет 9 месяцев

Сообщений: 754

Симпатии: 63

Оличный фильм , спасибо Макс !!!!!
Незачто.

Создавать темы 18-Сен-2011 12:10

[Профиль]  [ЛС] 

Aziz1314

Стаж: 7 лет 2 месяца

Сообщений: 331

Симпатии: 13

С раздачей помогу если чё !!!!!

Создавать темы 18-Сен-2011 14:41

[Профиль]  [ЛС] 

Bek_uz

Стаж: 6 лет 5 месяцев

Сообщений: 60

Симпатии: 1

фильм класс смотреть до последней секунд ay ay ay

Создавать темы 26-Сен-2011 00:43

[Профиль]  [ЛС] 

hildeN

Стаж: 6 лет 8 месяцев

Сообщений: 59

Симпатии: 2

нАРОД прибавьте газу плыыз!

Создавать темы 08-Окт-2011 10:06

[Профиль]  [ЛС] 
Показать сообщения:    
Ответить на тему

Текущее время: 18-Окт 23:41

Часовой пояс: UTC + 5



Вы не можете начинать темы
Вы не можете отвечать на сообщения
Вы не можете редактировать свои сообщения
Вы не можете удалять свои сообщения
Вы не можете голосовать в опросах
Вы не можете прикреплять файлы к сообщениям
Вы не можете скачивать файлы