Карибский кризис: Фашистский покемон / Pirates of the Caribbean: The Curse of the Black Pearl (Гор Вербински) [2008 г., Фэнтези, Боевик, Приключения, DVDRip] Гоблин

Страницы :  1, 2  След.

Ответить на тему
 

Mr_ALo ®

Стаж: 7 лет 11 месяцев

Сообщений: 367

Симпатии: 20

Карибский кризис: Фашистский покемон / Pirates of the Caribbean: The Curse of the Black Pearl Год выпуска: 2008
Страна: Россия (США)
Жанр: Смешной перевод (Фэнтези, Боевик, Приключения)
Продолжительность: 02:09:19
Перевод: Профессиональный (одноголосый) | студия "МегаБобёр"
Режиссер: Гор Вербински
В ролях: Джонни Депп, Джеффри Раш, Орландо Блум, Кира Найтли, Джек Девенпорт, Джонатан Прайс, Ли Аренберг, Маккензи Крук, Дэмиан О’Хейр, Джиллз Нью
Описание: Фашистская подлодка, оснащенная машиной времени, по ошибке попадает в Парагвай семнадцатого века. При этом темпоральный парадоксон превращает команду в гадкое сборище вурдалаков. На борту подлодки - личная коллекция покемонов фюрера. После того, как эстонский юнга Буль Терьер своровал одного из покемонов - "Лысого Вождя" и бесследно пропал с подлодки, фашистам-упырям не остается ничего иного, как найти заторможенного паренька и вернуть покемона. Сорвать мерзкие планы фашистов может лишь один человек - русский разведчик Евгений Воробьев.
Карибский кризис 2: Человек-Осьминог
Карибский кризис 3: Гудбай Америка
Качество: DVDRip
Видео: XviD 544x416 25.000 fps, 622 Kbps
Аудио: MP3 48.0 KHz 2 channel, 128 Kbps

MediaInfo

General
Complete name : K:\Films\Карибский кризис Фашистский покемон DVDRip 2008.avi
Format : AVI
Format/Info : Audio Video Interleave
File size : 700 MiB
Duration : 2h 9mn
Overall bit rate : 757 Kbps
Writing application : VirtualDubMod 1.5.4.1 (build 2178/release)
Writing library : VirtualDubMod build 2178/release
Video
ID : 0
Format : MPEG-4 Visual
Format profile : Advanced [email protected]
Format settings, BVOP : 1
Format settings, QPel : No
Format settings, GMC : No warppoints
Format settings, Matrix : Custom
Codec ID : XVID
Codec ID/Hint : XviD
Duration : 2h 9mn
Bit rate : 622 Kbps
Width : 544 pixels
Height : 416 pixels
Display aspect ratio : 4:3
Frame rate : 25.000 fps
Color space : YUV
Chroma subsampling : 4:2:0
Bit depth : 8 bits
Scan type : Progressive
Compression mode : Lossy
Bits/(Pixel*Frame) : 0.110
Stream size : 575 MiB (82%)
Writing library : XviD 1.2.0.dev47 (UTC 2006-11-01)
Audio
ID : 1
Format : MPEG Audio
Format version : Version 1
Format profile : Layer 3
Mode : Joint stereo
Codec ID : 55
Codec ID/Hint : MP3
Duration : 2h 9mn
Bit rate mode : Constant
Bit rate : 128 Kbps
Channel(s) : 2 channels
Sampling rate : 44.1 KHz
Compression mode : Lossy
Stream size : 118 MiB (17%)
Alignment : Split accross interleaves
Interleave, duration : 80 ms (2.00 video frames)
Interleave, preload duration : 500 ms

Скриншоты





Последний раз редактировалось: Mr_ALo (2012-07-18 20:34), всего редактировалось 10 раз(а)

Создавать темы 17-Сен-2011 23:56

[Профиль]  [ЛС] 

murod007

Стаж: 7 лет 2 месяца

Сообщений: 10

ЧТО ЕТО? Я В ЗАБЛУЖДЕНИИ. КТОТО МОЖЕТЬ МНЕ ОБЯСНИТ ЩО ТАКОЕ
ИЛИ ЕТО ПРИКОЛ? an
Добавлено спустя 1 минута 37 секунд:
ЧТО ЕТО? Я В ЗАБЛУЖДЕНИИ. КТОТО МОЖЕТЬ МНЕ ОБЯСНИТ ЩО ТАКОЕ
ИЛИ ЕТО ПРИКОЛ? an


Последний раз редактировалось: murod007 (2011-09-18 00:54), всего редактировалось 1 раз

Создавать темы 18-Сен-2011 00:54

[Профиль]  [ЛС] 

sailer

Стаж: 8 лет 2 месяца

Сообщений: 37

Симпатии: 17

Это смешной перевод от гоблина al

Создавать темы 18-Сен-2011 08:31

[Профиль]  [ЛС] 

MisterKO

Стаж: 6 лет 9 месяцев

Сообщений: 7

ЧТО ЕТО? Я В ЗАБЛУЖДЕНИИ. КТОТО МОЖЕТЬ МНЕ ОБЯСНИТ ЩО ТАКОЕ
ИЛИ ЕТО ПРИКОЛ? an
Добавлено спустя 1 минута 37 секунд:
ЧТО ЕТО? Я В ЗАБЛУЖДЕНИИ. КТОТО МОЖЕТЬ МНЕ ОБЯСНИТ ЩО ТАКОЕ
ИЛИ ЕТО ПРИКОЛ? an
Ндэ вас все больше и больше заполонили планету ag

Создавать темы 19-Сен-2011 11:34

[Профиль]  [ЛС] 

Tanatos

Стаж: 7 лет 1 месяц

Сообщений: 16

ЧТО ЕТО? Я В ЗАБЛУЖДЕНИИ. КТОТО МОЖЕТЬ МНЕ ОБЯСНИТ ЩО ТАКОЕ
ИЛИ ЕТО ПРИКОЛ? an
Добавлено спустя 1 минута 37 секунд:
ЧТО ЕТО? Я В ЗАБЛУЖДЕНИИ. КТОТО МОЖЕТЬ МНЕ ОБЯСНИТ ЩО ТАКОЕ
ИЛИ ЕТО ПРИКОЛ? an
Ндэ вас все больше и больше заполонили планету ag
киборги....они заполонили всю планету
а если по теме, то не знал что есть перевод от гоблина обязательно посмотрю)
Добавлено спустя 6 секунд:
ЧТО ЕТО? Я В ЗАБЛУЖДЕНИИ. КТОТО МОЖЕТЬ МНЕ ОБЯСНИТ ЩО ТАКОЕ
ИЛИ ЕТО ПРИКОЛ? an
Добавлено спустя 1 минута 37 секунд:
ЧТО ЕТО? Я В ЗАБЛУЖДЕНИИ. КТОТО МОЖЕТЬ МНЕ ОБЯСНИТ ЩО ТАКОЕ
ИЛИ ЕТО ПРИКОЛ? an
Ндэ вас все больше и больше заполонили планету ag
киборги....они заполонили всю планету
а если по теме, то не знал что есть перевод от гоблина обязательно посмотрю)


Последний раз редактировалось: Tanatos (2011-09-24 17:24), всего редактировалось 1 раз

Создавать темы 24-Сен-2011 17:24

[Профиль]  [ЛС] 

McFLY

Стаж: 5 лет 8 месяцев

Сообщений: 658

Симпатии: 22

СПАСИБО ЗА РЕЛИЗ!!!! ПОСМЕЯЛСЯ ОТ ДУШИ + ОТЛИЧНОЕ НАСТРОЕНИЕ)))

Создавать темы 09-Апр-2012 12:34

[Профиль]  [ЛС] 

IIpu3pak

Стаж: 5 лет 9 месяцев

Сообщений: 258

Симпатии: 53

второй скрин внезапен))

Создавать темы 29-Апр-2012 00:14

[Профиль]  [ЛС] 

Almashina

Стаж: 6 лет

Сообщений: 26

Симпатии: 7

Постер внезапен не менее =)

Создавать темы 27-Май-2012 22:43

[Профиль]  [ЛС] 

17d1966

Стаж: 5 лет 8 месяцев

Сообщений: 43

дайте скачать скороти 0 блин

Создавать темы 31-Июл-2012 16:25

[Профиль]  [ЛС] 

SaySay

Стаж: 5 лет

Сообщений: 33

Симпатии: 1

Пораздавайте

Создавать темы 02-Ноя-2012 20:09

[Профиль]  [ЛС] 

harconnen

Стаж: 6 лет

Сообщений: 9

аууууу народ встаньте ктонибуть на раздачу

Создавать темы 12-Янв-2013 14:13

[Профиль]  [ЛС] 

xxxkiller

Стаж: 4 года 7 месяцев

Сообщений: 10

дайте скорость

Создавать темы 27-Май-2013 07:56

[Профиль]  [ЛС] 

xxxkiller

Стаж: 4 года 7 месяцев

Сообщений: 10

аууууууууууууууууууууууууууууууу

Создавать темы 27-Май-2013 07:56

[Профиль]  [ЛС] 

xxxkiller

Стаж: 4 года 7 месяцев

Сообщений: 10

дайте скачать

Создавать темы 27-Май-2013 07:57

[Профиль]  [ЛС] 

metallica-1994

Стаж: 4 года 9 месяцев

Сообщений: 3

почему не качает зараза

Создавать темы 04-Авг-2013 11:43

[Профиль]  [ЛС] 
Показать сообщения:    
Ответить на тему

Текущее время: 24-Ноя 10:47

Часовой пояс: UTC + 5



Вы не можете начинать темы
Вы не можете отвечать на сообщения
Вы не можете редактировать свои сообщения
Вы не можете удалять свои сообщения
Вы не можете голосовать в опросах
Вы не можете прикреплять файлы к сообщениям
Вы не можете скачивать файлы