Долина волков: Ирак / Kurtlar Vadisi(Irak) (Сердар Акар, Sadullah Senturk) [2006 г., боевик, приключения, HDTVRip]

Ответить на тему
 

adham_boy ®

Стаж: 7 лет 1 месяц

Сообщений: 122

Симпатии: 9

Долина волков: Ирак / Kurtlar Vadisi(Irak)
Год выпуска: 2006
Страна: Турция
Жанр: боевик, приключения
Продолжительность: 02:03:54
Перевод: Профессиональный (двухголосый)
Режиссер: Сердар Акар, Sadullah Senturk
В ролях: Неджати Шашмаз,Билли Зейн,Гасан Масуд,Gurkan Uygun,Berguzar Korel,Кенан Чобан,Erhan Ufak,Диего Серрано,Гэри Бьюзи,Спенсер Гаррет
Описание: Фильм основан на реальной истории. 4 июля подразделение американских войск вторглось на секретную турецкую базу, на которой находилось всего одиннадцать человек. Турецкие солдаты предполагали, что это всего лишь дружеский визит со стороны союзников, но всё оказалось далеко не так. Для американцев они это единственная сила в регионе и в тот день одиннадцать турецких солдат были депортированы с капюшонами на головах, без уважения их чести и достоинства и на глазах местных жителей.
Их начальник, лейтенант Сулейман Аслан, не может выдержать такого позора и кончает жизнь самоубийством. В своей предсмертной записке он обращается к своему старому другу, опытному агенту турецких спецслужб Полату Алемдару. Полат не может не выполнить последнюю волю своего друга и отправляется в Северный Ирак, чтобы найти людей, погубивших его честь и вынудивших расстаться с жизнью. То, что он увидел там, разительно отличалось от ситуации, описываемой новыми американскими властями, потрясло его до глубины души.
Виновником позора Сулеймана и многих других преступлений против человечности оказывается командир специальных подразделений американских войск Сэм Уильям Маршалл. Путь Полата пересекается с одной из многочисленных жертв Маршалла, молодой девушкой Лейлой, и в своих поисках справедливости и возмездия они готовы пойти до конца.
Качество: HDTVRip
Формат: MKV
Видео кодек: H.26x
Аудио кодек: AC3
Видео: MPEG4 Video (H264) 1868x1036 23.98fps ~ 11.8 Mbps
Аудио: 48 kHz, AC3 Dolby Digital, 2/0 (L,R) ch, ~192 kbps [RUS]

Мед инфо

General
Complete name :Kurtlar.Vadisi.Irak.2006.1080p.Bluray.DTS.x264.mkv
Format : Matroska
File size : 11.5 GiB
Duration : 2h 3mn
Overall bit rate : 13.2 Mbps
Movie name : Kurtlar.Vadisi.Irak.2006.1080p.Bluray.DTS.x264-D-Z0N3
Encoded date : UTC 2010-11-20 05:33:24
Writing application : mkvmerge v3.2.0 ('Beginnings') built on Feb 12 2010 16:46:17
Writing library : libebml v0.7.9 + libmatroska v0.8.1
Video #1
ID : 1
Format : AVC
Format/Info : Advanced Video Codec
Format profile : [email protected]
Format settings, CABAC : Yes
Format settings, ReFrames : 4 frames
Muxing mode : Container [email protected]
Codec ID : V_MPEG4/ISO/AVC
Duration : 2h 3mn
Bit rate : 11.6 Mbps
Nominal bit rate : 11.8 Mbps
Width : 1 868 pixels
Height : 1 036 pixels
Display aspect ratio : 16:9
Frame rate : 23.976 fps
Resolution : 24 bits
Colorimetry : 4:2:0
Scan type : Progressive
Bits/(Pixel*Frame) : 0.250
Stream size : 10.0 GiB (87%)
Title : D-Z0N3 HD - [email protected] - 11,8 Mbps
Writing library : x264 core 85 r1442kGIT 781d300
Encoding settings : cabac=1 / ref=4 / deblock=1:-3:-3 / analyse=0x3:0x113 / me=umh / subme=10 / psy=1 / psy_rd=1.00:0.00 / mixed_ref=0 / me_range=64 / chroma_me=1 / trellis=2 / 8x8dct=1 / cqm=0 / deadzone=21,11 / fast_pskip=0 / chroma_qp_offset=-2 / threads=12 / sliced_threads=0 / nr=0 / decimate=0 / mbaff=0 / interlaced=0 / constrained_intra=0 / bframes=16 / b_pyramid=2 / b_adapt=2 / b_bias=0 / direct=3 / wpredb=1 / wpredp=2 / keyint=250 / keyint_min=25 / scenecut=40 / intra_refresh=0 / rc_lookahead=60 / rc=2pass / mbtree=1 / bitrate=11843 / ratetol=1.0 / qcomp=0.60 / qpmin=10 / qpmax=51 / qpstep=4 / cplxblur=20.0 / qblur=0.5 / vbv_maxrate=38000 / vbv_bufsize=30000 / ip_ratio=1.40 / aq=1:0.80 / pulldown=0 / nal_hrd=0
Audio #2
ID : 2
Format : AC-3
Format/Info : Audio Coding 3
Codec ID : A_AC3
Duration : 2h 3mn
Bit rate mode : Constant
Bit rate : 192 Kbps
Channel(s) : 2 channels
Channel positions : L R
Sampling rate : 48.0 KHz
Stream size : 170 MiB (1%)
Title : профессиональный двухголосый (R5)
Language : Russian
Audio #3
ID : 3
Format : AC-3
Format/Info : Audio Coding 3
Codec ID : A_AC3
Duration : 2h 3mn
Bit rate mode : Constant
Bit rate : 448 Kbps
Channel(s) : 6 channels
Channel positions : Front: L C R, Surround: L R, LFE
Sampling rate : 48.0 KHz
Stream size : 397 MiB (3%)
Title : любительский одноголосый
Language : Russian
Audio #4
ID : 4
Format : DTS
Format/Info : Digital Theater Systems
Codec ID : A_DTS
Duration : 2h 3mn
Bit rate mode : Constant
Bit rate : 755 Kbps
Channel(s) : 6 channels
Channel positions : Front: L C R, Surround: L R, LFE
Sampling rate : 48.0 KHz
Resolution : 24 bits
Stream size : 669 MiB (6%)
Title : D-Z0N3 HD - DTS MA CORE - DTS 5.1 768 Kbps
Language : Turkish
Text #5
ID : 5
Format : UTF-8
Codec ID : S_TEXT/UTF8
Codec ID/Info : UTF-8 Plain Text
Title : D-Z0N3 HD - SRT
Language : English
Text #6
ID : 6
Format : UTF-8
Codec ID : S_TEXT/UTF8
Codec ID/Info : UTF-8 Plain Text
Title : D-Z0N3 HD - SRT
Language : Turkish
Text #7
ID : 7
Format : UTF-8
Codec ID : S_TEXT/UTF8
Codec ID/Info : UTF-8 Plain Text
Title : D-Z0N3 HD - SRT
Language : German
Text #8
ID : 8
Format : UTF-8
Codec ID : S_TEXT/UTF8
Codec ID/Info : UTF-8 Plain Text
Title : D-Z0N3 HD - SRT - For Foreign Lang. parts
Language : Turkish

Скриншоты




Создавать темы 02-Окт-2011 00:05

[Профиль]  [ЛС] 

adham_boy ®

Стаж: 7 лет 1 месяц

Сообщений: 122

Симпатии: 9

тепер чё имж .у форум тоже не показывает что ли


Последний раз редактировалось: adham_boy (2011-10-10 16:12), всего редактировалось 1 раз

Создавать темы 10-Окт-2011 16:12

[Профиль]  [ЛС] 

Гектор

Стаж: 6 лет 7 месяцев

Сообщений: 56

Симпатии: 3

где сидер

Создавать темы 30-Янв-2012 12:04

[Профиль]  [ЛС] 

Boburshox98

Стаж: 3 года 10 месяцев

Сообщений: 10

почему скорость нету ?

Создавать темы 30-Дек-2013 12:45

[Профиль]  [ЛС] 

Stash

Стаж: 7 лет 6 месяцев

Сообщений: 23

skors padavayte

Создавать темы 07-Фев-2014 18:24

[Профиль]  [ЛС] 
Показать сообщения:    
Ответить на тему

Текущее время: 22-Ноя 00:35

Часовой пояс: UTC + 5



Вы не можете начинать темы
Вы не можете отвечать на сообщения
Вы не можете редактировать свои сообщения
Вы не можете удалять свои сообщения
Вы не можете голосовать в опросах
Вы не можете прикреплять файлы к сообщениям
Вы не можете скачивать файлы