Трансформеры 3: Тёмная сторона Луны / Transformers: Dark of the Moon (Майкл Бэй) [2011 г., фантастика, боевик, приключения, BDRip]

Страницы :  1, 2  След.

Ответить на тему
 

sleverin ®

Стаж: 7 лет 6 месяцев

Сообщений: 16

Симпатии: 2

Трансформеры 3: Тёмная сторона Луны / Transformers: Dark of the Moon
«Последний шанс цивилизации»

Год выпуска: 2011
Страна: США, Paramount Pictures
Жанр: фантастика, боевик, приключения
Продолжительность: 02:34:23
Перевод: Профессиональный [Полное дублирование]
Режиссер: Майкл Бэй
В ролях: Шайа аф, Джош Дюамель, Джон Туртурро, Тайриз Гибсон, Роузи Хантингтон-Уайтли, Патрик Демпси, Кевин Данн, Джули Уайт, Хьюго Уивинг, Кен Жонг, Джон Малкович и др.
: Для наших героев наступили печальные будни: Сэм потерял Микаэлу, правительство выпускает законодательный акт о выселении Автоботов с Земли, а пока Мегатрон скрывается после позорного поражения Фоллена, десептикон Шокуэйв, правитель Кибертрона, готовится нанести визит нашей планете с совсем не добрыми намерениями. Действие заключительной части трилогии на этот раз охватит не только Землю, но и Луну, темная сторона которой хранит не менее темные тайны.
Доп. информация : Рейтинг:
IMDB: 6.6/10 (67,321 голос)
КиноПоиск: 7.240 (23,586 голосов)

Формат: MKV
Видео: MPEG4 Video (H264) 1280x528 23.98fps 1 972 Kbps
Аудио: Dolby AC3 48000Hz 6ch 384 Kbps

Media Info

Video
ID : 1
Format : AVC
Format/Info : Advanced Video Codec
Format profile : [email protected]
Format settings, CABAC : Yes
Format settings, ReFrames : 9 frames
Muxing mode : Header stripping
Codec ID : V_MPEG4/ISO/AVC
Duration : 2h 34mn
Bit rate : 1 972 Kbps
Width : 1 280 pixels
Height : 528 pixels
Display aspect ratio : 2.40:1
Frame rate : 23.976 fps
Color space : YUV
Chroma subsampling : 4:2:0
Bit depth : 8 bits
Scan type : Progressive
Bits/(Pixel*Frame) : 0.122
Stream size : 2.08 GiB (82%)
Writing library : x264 core 115 r1937 aa21558
Encoding settings : cabac=1 / ref=9 / deblock=1:0:0 / analyse=0x3:0x133 / me=umh / subme=9 / psy=1 / psy_rd=1.00:0.00 / mixed_ref=1 / me_range=32 / chroma_me=1 / trellis=2 / 8x8dct=1 / cqm=0 / deadzone=21,11 / fast_pskip=1 / chroma_qp_offset=-2 / threads=3 / sliced_threads=0 / nr=0 / decimate=1 / interlaced=0 / bluray_compat=0 / constrained_intra=0 / bframes=6 / b_pyramid=2 / b_adapt=2 / b_bias=0 / direct=3 / weightb=1 / open_gop=0 / weightp=2 / keyint=250 / keyint_min=23 / scenecut=40 / intra_refresh=0 / rc_lookahead=60 / rc=2pass / mbtree=1 / bitrate=1972 / ratetol=1.0 / qcomp=0.60 / qpmin=0 / qpmax=69 / qpstep=4 / cplxblur=20.0 / qblur=0.5 / ip_ratio=1.40 / aq=1:1.00
Audio
ID : 2
Format : AC-3
Format/Info : Audio Coding 3
Mode extension : CM (complete main)
Muxing mode : Header stripping
Codec ID : A_AC3
Duration : 2h 34mn
Bit rate mode : Constant
Bit rate : 384 Kbps
Channel(s) : 6 channels
Channel positions : Front: L C R, Side: L R, LFE
Sampling rate : 48.0 KHz
Bit depth : 16 bits
Compression mode : Lossy
Delay relative to video : 28ms
Stream size : 424 MiB (16%)

Скриншоты




Последний раз редактировалось: sleverin (2011-10-09 19:32), всего редактировалось 11 раз(а)

Создавать темы 06-Окт-2011 06:13

[Профиль]  [ЛС] 

one-two

Стаж: 7 лет 1 месяц

Сообщений: 24

это ЛИЦЕНЗИЯ???


Последний раз редактировалось: one-two (2011-10-06 09:23), всего редактировалось 1 раз

Создавать темы 06-Окт-2011 09:23

[Профиль]  [ЛС] 

sleverin ®

Стаж: 7 лет 6 месяцев

Сообщений: 16

Симпатии: 2

пока нет но качество стоит заценить )) лично мне понравилось)))

Создавать темы 06-Окт-2011 09:43

[Профиль]  [ЛС] 

vladlen

Стаж: 7 лет 7 месяцев

Сообщений: 6

да звук и картинка хорошие

Создавать темы 06-Окт-2011 10:37

[Профиль]  [ЛС] 

Barcelona

Стаж: 6 лет 9 месяцев

Сообщений: 16

Профессиональный (полное дублирование) [Лицензия] не лицуха говоришь ?? sleverin

Создавать темы 06-Окт-2011 11:44

[Профиль]  [ЛС] 

Топик был перенесен из форума Фильмы за 2011 в форум HD-AVC

Sonatrek

Создавать темы 06-Окт-2011 12:34

 

all

Стаж: 6 лет 2 месяца

Сообщений: 49

А когда в HD будет ?

Создавать темы 06-Окт-2011 14:25

[Профиль]  [ЛС] 

CoolDX

Стаж: 6 лет 7 месяцев

Сообщений: 196

Симпатии: 59

В декабре когда выйдет настоящая Лицензия

Создавать темы 06-Окт-2011 14:41

[Профиль]  [ЛС] 

all

Стаж: 6 лет 2 месяца

Сообщений: 49

лишь бы чтобы сдесь ее выложили

Создавать темы 06-Окт-2011 14:49

[Профиль]  [ЛС] 

kokojambo

Стаж: 7 лет 2 месяца

Сообщений: 13

респект sleverin(у)

Создавать темы 15-Окт-2011 15:10

[Профиль]  [ЛС] 

stark_1

Стаж: 6 лет 1 месяц

Сообщений: 24

Симпатии: 1

Дайте скорости

Создавать темы 11-Дек-2011 09:54

[Профиль]  [ЛС] 

ooegoistooo

Стаж: 5 лет 6 месяцев

Сообщений: 3

Пожалуйста дайте скорость!!!!!

Создавать темы 05-Мар-2012 17:39

[Профиль]  [ЛС] 

Roach

Стаж: 6 лет 3 месяца

Сообщений: 7

Люди пожалуйста дайте больше скорости,очень хочу посмотреть этот фильм,плизз

Создавать темы 22-Авг-2012 13:55

[Профиль]  [ЛС] 

sher3od

Стаж: 4 года 9 месяцев

Сообщений: 41

Симпатии: 3

присоединяюсь к скачке надеюсь дадите до качать сиды не уходите с раздачи пож.

Создавать темы 06-Фев-2013 17:34

[Профиль]  [ЛС] 

boy86

Стаж: 4 года 6 месяцев

Сообщений: 26

Симпатии: 2

Народ, встаньте на раздачу...

Создавать темы 26-Апр-2013 21:57

[Профиль]  [ЛС] 
Показать сообщения:    
Ответить на тему

Текущее время: 19-Авг 14:27

Часовой пояс: UTC + 5



Вы не можете начинать темы
Вы не можете отвечать на сообщения
Вы не можете редактировать свои сообщения
Вы не можете удалять свои сообщения
Вы не можете голосовать в опросах
Вы не можете прикреплять файлы к сообщениям
Вы не можете скачивать файлы