Меченосцы / Wu xia (Питер Чан) [2011 г., боевик, драма, HDRip]

Ответить на тему
 

lotto ®

Стаж: 7 лет 7 месяцев

Сообщений: 221

Симпатии: 409

Меченосцы / Wu xia
Год выпуска: 2011
Страна: Гонконг, Китай
Жанр: боевик, драма
Продолжительность: 01:55:00
Перевод: Любительский (одноголосый)-Режиссер: Питер Чан-В ролях: Донни Ен
Кара <~~>
Цзян У
Такеши Канеширо
Ю Кенг
Сяо Жань Ли
Тан Вэй
Кенджи Танигаки
Ю Ванг
Хуа Ян
Описание: Герой фильма — скромный китайский ремесленник-изготовитель бумаги, живущий в далекой деревне с женой и двумя детьми во времена империи Цин. Однажды в деревне неожиданно появляется сыщик, и в их безмятежной жизни происходит переворот…

Media Info

Video
ID : 0
Format : MPEG-4 Visual
Format profile : Advanced [email protected]
Format settings, BVOP : 1
Format settings, QPel : No
Format settings, GMC : No warppoints
Format settings, Matrix : Custom
Codec ID : XVID
Codec ID/Hint : XviD
Duration : 1h 54mn
Bit rate : 767 Kbps
Width : 688 pixels
Height : 288 pixels
Display aspect ratio : 2.40:1
Frame rate : 24.000 fps
Color space : YUV
Chroma subsampling : 4:2:0
Bit depth : 8 bits
Scan type : Progressive
Compression mode : Lossy
Bits/(Pixel*Frame) : 0.161
Stream size : 631 MiB (85%)
Writing library : XviD 1.2.1 (UTC 2008-12-04)
Audio
ID : 1
Format : MPEG Audio
Format version : Version 1
Format profile : Layer 3
Codec ID : 55
Codec ID/Hint : MP3
Duration : 1h 54mn
Bit rate mode : Constant
Bit rate : 128 Kbps
Channel(s) : 2 channels
Sampling rate : 48.0 KHz
Compression mode : Lossy
Stream size : 105 MiB (14%)
Alignment : Aligned on interleaves
Interleave, duration : 42 ms (1.00 video frame)
Interleave, preload duration : 504 ms
Writing library : LAME3.97
Encoding settings : -m s -V 4 -q 2 -lowpass 17 -b 128
Качество: HDRip
Формат: AVI
Видео кодек: XviD
Аудио кодек: MP3
Видео: 688x288, XviD 1.2.1 ~767 kbps avg, 0.16 bit/pixel
Аудио: stereo mp3 128kbps-

Скриншоты





Последний раз редактировалось: lotto (2011-10-07 23:20), всего редактировалось 2 раз(а)

Создавать темы 07-Окт-2011 19:42

[Профиль]  [ЛС] 

Sinema_uz

Стаж: 6 лет 7 месяцев

Сообщений: 303

Симпатии: 4

я смотрел фильм донни енг сын глава мафии 72 демонов филь ay ay az м класс!!!1

Создавать темы 07-Окт-2011 20:58

[Профиль]  [ЛС] 

CS_JOKER

Стаж: 6 лет 6 месяцев

Сообщений: 9

skorost dayti

Создавать темы 08-Окт-2011 01:39

[Профиль]  [ЛС] 

Xomid

Стаж: 6 лет 3 месяца

Сообщений: 34

Симпатии: 4

Меченосцы не Sword-bearer зачем здес написина Wu xia ? я не понил

Создавать темы 08-Окт-2011 02:23

[Профиль]  [ЛС] 

Sinema_uz

Стаж: 6 лет 7 месяцев

Сообщений: 303

Симпатии: 4

качает не пожелете!!!!!

Создавать темы 08-Окт-2011 06:26

[Профиль]  [ЛС] 

lotto ®

Стаж: 7 лет 7 месяцев

Сообщений: 221

Симпатии: 409

Фильм действительно стоящий.
Добавлено спустя 8 часов 23 секунды:
Этот фильм перекликается с http://tas-ix.net/viewtopic.php?t=10832


Последний раз редактировалось: lotto (2011-10-08 23:39), всего редактировалось 1 раз

Создавать темы 08-Окт-2011 23:39

[Профиль]  [ЛС] 

boburbek22

Стаж: 6 лет 11 месяцев

Сообщений: 2

ak skorst!!!!!!!!!!!!
Добавлено спустя 8 секунд:
ak skorst!!!!!!!!!!!!


Последний раз редактировалось: boburbek22 (2011-10-10 18:00), всего редактировалось 1 раз

Создавать темы 10-Окт-2011 18:00

[Профиль]  [ЛС] 

Топик был перенесен из форума Фильмы за 2011 в форум Азиатские фильмы


victor0778

Создавать темы 13-Янв-2012 19:18

 

Илья12345

Стаж: 5 лет 4 месяца

Сообщений: 29

Симпатии: 3

super

Создавать темы 20-Апр-2012 22:02

[Профиль]  [ЛС] 
Показать сообщения:    
Ответить на тему

Текущее время: 18-Авг 00:35

Часовой пояс: UTC + 5



Вы не можете начинать темы
Вы не можете отвечать на сообщения
Вы не можете редактировать свои сообщения
Вы не можете удалять свои сообщения
Вы не можете голосовать в опросах
Вы не можете прикреплять файлы к сообщениям
Вы не можете скачивать файлы