Рассел Питерс: белый, красный и коричневый / Russell Peters: Red, White and Brown (Джигар Талати) [2008 г., Stand-Up комедия, DVDRip]

Ответить на тему
 

msn92 ®

Стаж: 6 лет 10 месяцев

Сообщений: 2

Симпатии: 2

Рассел Питерс: белый, красный и коричневый / Russell Peters: Red, White and Brown
Год выпуска: 2008
Страна: США
Жанр: Stand-Up комедия (юмористическая импровизация)
Режиссер: Джигар Талати
Продолжительность: 01:19:05
Перевод: без перевода (на английском)
Субтитры: английские (отдельным файлом)
Описание: Рассел Питерс - один из самых популярных западных комиков нового тысячелетия. В своем лучшем шоу "Red White and Brown", записанном в Madison Square Garden, Питерс, который сам является канадцем индийского происхождения, высмеивает стереотипы о различных нациях, особенно достается тем, кого больше всего представлено в зале - китайцам, арабам, итальянцам, индусам, но в то же время его шутки нельзя назвать обидными - люди с удовольствием смеются над собой. Рассел Питерс владеет потрясающим чувством юмора, харизмой, мимикой, невероятным умением пародировать множество соответствующих акцентов английского языка. Также затрагиваются темы автоматов Dance Dance Revolution, независимости расы от культуры, стереотипов, насаждаемых медиа, мужской "волосатости", имеет ли размер значение и многое многое другое, что только можно представить в одном из лучшем шоу в истории Stand-Up комедии...
Невероятно смешная импровизация, которую просто невозможно перевести на русский язык, юмор, который может быть по-настоящему смешным только в оригинале на английском языке...
Качество: DVDRip
Формат: AVI
Видео кодек: XviD
Аудио кодек: MP3
Видео: 1069kbps, 608x352
Аудио: MP3, 160 kb/s (2 ch)

Скриншоты





Медиаинфо

General
Complete name : Russell Peters Red White & Brown.avi
Format : AVI
Format/Info : Audio Video Interleave
File size : 700 MiB
Duration : 1h 19mn
Overall bit rate : 1 238 Kbps
Writing application : VirtualDubMod 1.5.4.1 (build 2178/release)
Writing library : VirtualDubMod build 2178/release
Video
ID : 0
Format : MPEG-4 Visual
Format profile : Advanced [email protected]
Format settings, BVOP : 1
Format settings, QPel : No
Format settings, GMC : No warppoints
Format settings, Matrix : Custom
Codec ID : XVID
Codec ID/Hint : XviD
Duration : 1h 19mn
Bit rate : 1 069 Kbps
Width : 608 pixels
Height : 352 pixels
Display aspect ratio : 16:9
Frame rate : 29.970 fps
Color space : YUV
Chroma subsampling : 4:2:0
Bit depth : 8 bits
Scan type : Progressive
Compression mode : Lossy
Bits/(Pixel*Frame) : 0.167
Stream size : 605 MiB (86%)
Writing library : XviD 1.1.2 (UTC 2006-11-01)
Audio
ID : 1
Format : MPEG Audio
Format version : Version 1
Format profile : Layer 3
Mode : Joint stereo
Mode extension : MS Stereo
Codec ID : 55
Codec ID/Hint : MP3
Duration : 1h 19mn
Bit rate mode : Constant
Bit rate : 160 Kbps
Channel(s) : 2 channels
Sampling rate : 48.0 KHz
Compression mode : Lossy
Stream size : 90.5 MiB (13%)
Alignment : Aligned on interleaves
Interleave, duration : 67 ms (2.00 video frames)
Interleave, preload duration : 504 ms
Writing library : LAME3.97
Encoding settings : -m j -V 4 -q 2 -lowpass 17.5 -b 160
Language : English


Последний раз редактировалось: msn92 (2011-10-09 19:49), всего редактировалось 2 раз(а)

Создавать темы 09-Окт-2011 02:38

[Профиль]  [ЛС] 

infernal.

Стаж: 7 лет 7 месяцев

Сообщений: 117

Симпатии: 1

постер и скриншоты загружаем Сюда или Сюда далее проверю.

Создавать темы 09-Окт-2011 17:59

[Профиль]  [ЛС] 

nodirzar

Стаж: 5 лет 11 месяцев

Сообщений: 4

добавь новые серии)))

Создавать темы 05-Фев-2012 16:49

[Профиль]  [ЛС] 

monkeey

Стаж: 5 лет 10 месяцев

Сообщений: 8

сидеры ау!!!

Создавать темы 23-Фев-2012 18:00

[Профиль]  [ЛС] 

h1n1

Стаж: 5 лет 10 месяцев

Сообщений: 11

сидеры дайте скачать плз

Создавать темы 19-Июл-2012 15:33

[Профиль]  [ЛС] 

waterfone

Стаж: 4 года 8 месяцев

Сообщений: 1

Присоединяюсь к просьбам.

Создавать темы 22-Июл-2013 16:28

[Профиль]  [ЛС] 
Показать сообщения:    
Ответить на тему

Текущее время: 13-Дек 00:58

Часовой пояс: UTC + 5



Вы не можете начинать темы
Вы не можете отвечать на сообщения
Вы не можете редактировать свои сообщения
Вы не можете удалять свои сообщения
Вы не можете голосовать в опросах
Вы не можете прикреплять файлы к сообщениям
Вы не можете скачивать файлы