Вой Банши / Крик Банши / Scream of the Banshee (Стивен С. Миллер) [2011 г., ужасы, DVDRip]

Ответить на тему
 

WolveS ®

Стаж: 6 лет 7 месяцев

Сообщений: 25

Вой Банши / Крик Банши / Scream of the Banshee
Год выпуска: 2011
Страна: США
Жанр: ужасы
Продолжительность: 01:30:07
Перевод: Профессиональный (многоголосый, закадровый)
Режиссер: Стивен С. Миллер
В ролях: Моника Акоста, Эрик Ф. Адамс, Марселль Баэр, Эрик Браун, Лиэнн Кохрэн, Томас С. Дэниэл, Лэнс Хенриксен, Гаррет Хайнс
Описание: На адрес калифорнийского университета приходит анонимная посылка с ценной вещицей — рыцарской перчаткой XII века. Пристраивая её на склад, студенты случайно обнаруживают ещё один артефакт тех времён — старый железный ящик, запечатанный хитроумным замком. Когда выясняется, что перчатка подходит к ящику в качестве ключа, ящик незамедлительно вскрывают и обнаруживают в нём неплохо сохранившуюся голову какого-то зубастого существа
Качество: DVDRip
Формат: MPG
Видео кодек: XviD
Аудио кодек: AC3
Видео: 720x400 (1.80:1), 23.976 fps, XviD build 50 ~1775 kbps avg, 0.26 bit/pixel
Аудио: 48 kHz, AC3 Dolby Digital, 3/2 (L,C,R,l,r) + LFE ch, ~384 kbps

mediainfo

General
Complete name : Voy Bashni.mpg
Format : MPEG-PS
File size : 897 MiB
Duration : 1h 30mn
Overall bit rate : 1 392 Kbps
Video #224
ID : 224 (0xE0)
Format : MPEG Video
Format version : Version 1
Format settings, Matrix : Default
Duration : 1h 30mn
Bit rate mode : Constant
Bit rate : 1 112 Kbps
Nominal bit rate : 1 150 Kbps
Width : 352 pixels
Height : 288 pixels
Display aspect ratio : 4:3
Frame rate : 25.000 fps
Scan type : Progressive
Bits/(Pixel*Frame) : 0.439
Stream size : 717 MiB (80%)
Audio #192
ID : 192 (0xC0)
Format : MPEG Audio
Format version : Version 1
Format profile : Layer 2
Duration : 1h 30mn
Bit rate mode : Constant
Bit rate : 224 Kbps
Channel(s) : 2 channels
Sampling rate : 44.1 KHz
Resolution : 16 bits
Stream size : 144 MiB (16%)

Скриншоты




Последний раз редактировалось: WolveS (2011-10-15 20:18), всего редактировалось 13 раз(а)

Создавать темы 11-Окт-2011 20:50

[Профиль]  [ЛС] 

MARVEL-S

Стаж: 6 лет 2 месяца

Сообщений: 139

Симпатии: 9

спасибо az

Создавать темы 11-Окт-2011 23:25

[Профиль]  [ЛС] 

Honda

Стаж: 7 лет

Сообщений: 93

Симпатии: 1

разве не 3 минимальное количество скриншотов?

Создавать темы 12-Окт-2011 01:11

[Профиль]  [ЛС] 

freethree

Стаж: 6 лет 6 месяцев

Сообщений: 7

ТВ3

Создавать темы 12-Окт-2011 06:22

[Профиль]  [ЛС] 

WolveS ®

Стаж: 6 лет 7 месяцев

Сообщений: 25

спасибо az
незашто az

Создавать темы 12-Окт-2011 07:38

[Профиль]  [ЛС] 

tehi

Стаж: 7 лет 2 месяца

Сообщений: 3

Когда раздача?

Создавать темы 12-Окт-2011 08:12

[Профиль]  [ЛС] 

Senat

Стаж: 6 лет 9 месяцев

Сообщений: 251

фильм как можно посмотреть или не стоит?

Создавать темы 12-Окт-2011 10:59

[Профиль]  [ЛС] 

khamid

Стаж: 8 лет

Сообщений: 107

Симпатии: 7

WolveS спасибо


Последний раз редактировалось: khamid (2011-10-12 12:25), всего редактировалось 1 раз

Создавать темы 12-Окт-2011 12:25

[Профиль]  [ЛС] 

WolveS ®

Стаж: 6 лет 7 месяцев

Сообщений: 25

WolveS спасибо
khamid Незашто спасиба az az


Последний раз редактировалось: WolveS (2011-10-12 19:00), всего редактировалось 1 раз

Создавать темы 12-Окт-2011 19:00

[Профиль]  [ЛС] 

Ma4ete

Стаж: 6 лет 10 месяцев

Сообщений: 166

Симпатии: 23

WolveS
исправь скрины на (352х288) и инфо по фильму

mediainfo

General
Complete name : Voy Bashni.mpg
Format : MPEG-PS
File size : 897 MiB
Duration : 1h 30mn
Overall bit rate : 1 392 Kbps
Video #224
ID : 224 (0xE0)
Format : MPEG Video
Format version : Version 1
Format settings, Matrix : Default
Duration : 1h 30mn
Bit rate mode : Constant
Bit rate : 1 112 Kbps
Nominal bit rate : 1 150 Kbps
Width : 352 pixels
Height : 288 pixels
Display aspect ratio : 4:3
Frame rate : 25.000 fps
Scan type : Progressive
Bits/(Pixel*Frame) : 0.439
Stream size : 717 MiB (80%)
Audio #192
ID : 192 (0xC0)
Format : MPEG Audio
Format version : Version 1
Format profile : Layer 2
Duration : 1h 30mn
Bit rate mode : Constant
Bit rate : 224 Kbps
Channel(s) : 2 channels
Sampling rate : 44.1 KHz
Resolution : 16 bits
Stream size : 144 MiB (16%)

Создавать темы 13-Окт-2011 00:05

[Профиль]  [ЛС] 

E|[email protected]|0

Стаж: 6 лет 2 месяца

Сообщений: 105

Симпатии: 4

Фильм at отстойный at и качество тоже at at at
Зачем такое вообще выкладывать??? bn

Создавать темы 15-Окт-2011 16:00

[Профиль]  [ЛС] 

WolveS ®

Стаж: 6 лет 7 месяцев

Сообщений: 25

Фильм at отстойный at и качество тоже at at at
Зачем такое вообще выкладывать??? bn
Что
Добавлено спустя 1 минута 29 секунд:
WolveS
исправь скрины на (352х288) и инфо по фильму

mediainfo

General
Complete name : Voy Bashni.mpg
Format : MPEG-PS
File size : 897 MiB
Duration : 1h 30mn
Overall bit rate : 1 392 Kbps
Video #224
ID : 224 (0xE0)
Format : MPEG Video
Format version : Version 1
Format settings, Matrix : Default
Duration : 1h 30mn
Bit rate mode : Constant
Bit rate : 1 112 Kbps
Nominal bit rate : 1 150 Kbps
Width : 352 pixels
Height : 288 pixels
Display aspect ratio : 4:3
Frame rate : 25.000 fps
Scan type : Progressive
Bits/(Pixel*Frame) : 0.439
Stream size : 717 MiB (80%)
Audio #192
ID : 192 (0xC0)
Format : MPEG Audio
Format version : Version 1
Format profile : Layer 2
Duration : 1h 30mn
Bit rate mode : Constant
Bit rate : 224 Kbps
Channel(s) : 2 channels
Sampling rate : 44.1 KHz
Resolution : 16 bits
Stream size : 144 MiB (16%)
Спасибо друг


Последний раз редактировалось: WolveS (2011-10-15 20:20), всего редактировалось 1 раз

Создавать темы 15-Окт-2011 20:20

[Профиль]  [ЛС] 

batya

Стаж: 7 лет 1 месяц

Сообщений: 62

Симпатии: 3

Кто то точно приметил ТВ3 ))

_________________
Подпись отключена за нарушение правил форума

Создавать темы 16-Ноя-2011 15:56

[Профиль]  [ЛС] 

Jokero

Стаж: 6 лет 7 месяцев

Сообщений: 176

Симпатии: 4

ДАйте скорость, и сидеры прошу вас не сваливать с раздачи

Создавать темы 15-Янв-2012 11:30

[Профиль]  [ЛС] 
Показать сообщения:    
Ответить на тему

Текущее время: 24-Ноя 21:54

Часовой пояс: UTC + 5



Вы не можете начинать темы
Вы не можете отвечать на сообщения
Вы не можете редактировать свои сообщения
Вы не можете удалять свои сообщения
Вы не можете голосовать в опросах
Вы не можете прикреплять файлы к сообщениям
Вы не можете скачивать файлы