Большая игра / State of Play (Кевин МакДональд) [2009 г., триллер, драма, криминал, детектив, HDTVRip]

Ответить на тему
 

adham_boy ®

Стаж: 6 лет 10 месяцев

Сообщений: 122

Симпатии: 9

Большая игра / State of Play
Год выпуска: 2009
Страна: США
Жанр: триллер, драма, криминал, детектив
Продолжительность: 02:07:01
Перевод: Профессиональный (полное дублирование)
Режиссер: Кевин МакДональд
В ролях: Рассел Кроу, Бен Аффлек, Рэйчел МакАдамс , Хелен Миррен , Робин Райт , Джейсон Бейтман , Джефф Дэниелс , Майкл Беррессе , Гарри Дж. Ленникс , Джош Мостел
Описание: Американский журналист Маккэффри расследует серию жестоких убийств. Одной из жертв становится любовница преуспевающего конгрессмена Коллинза, давнего друга Маккэффри. Улики открывают перед журналистом цепочку чудовищных заговоров, ведущих в высшие политические круги страны. Люди, с которыми ему придется иметь дело, ворочают миллиардами долларов и не привыкли, когда в их дела вмешиваются посторонние.
Качество: BDRip
Формат: MKV
Видео кодек: H.26x
Аудио кодек: AC3
Видео: Bit rate :4522 kbps . 1280 / 544 pix
Аудио: Bit rate: 384 kbps 48.0 Khz

мед инфо

General
Complete name : Большая игра.mkv
Format : Matroska
File size : 5.81 GiB
Duration : 2h 7mn
Overall bit rate : 6 546 Kbps
Encoded date : UTC 2009-09-25 07:59:41
Writing application : mkvmerge v2.7.0 ('Do It Again') built on Apr 15 2009 00:27:10
Writing library : libebml v0.7.7 + libmatroska v0.8.1
Video #1
ID : 1
Format : AVC
Format/Info : Advanced Video Codec
Format profile : [email protected]
Format settings, CABAC : Yes
Format settings, ReFrames : 9 frames
Muxing mode : Container [email protected]
Codec ID : V_MPEG4/ISO/AVC
Duration : 2h 6mn
Bit rate : 4 522 Kbps
Nominal bit rate : 4 651 Kbps
Width : 1 280 pixels
Height : 544 pixels
Display aspect ratio : 2.35:1
Frame rate : 23.976 fps
Resolution : 24 bits
Colorimetry : 4:2:0
Scan type : Progressive
Bits/(Pixel*Frame) : 0.271
Stream size : 4.01 GiB (69%)
Title : State of Play (2009) [Encoded by DON]
Writing library : x264 core 72 r1232M c8edc12
Encoding settings : cabac=1 / ref=9 / deblock=1:-3:-3 / analyse=0x3:0x113 / me=umh / subme=9 / psy=1 / psy_rd=0.8:0.1 / mixed_ref=1 / me_range=48 / chroma_me=1 / trellis=2 / 8x8dct=1 / cqm=0 / deadzone=21,11 / chroma_qp_offset=-3 / threads=6 / nr=0 / decimate=0 / mbaff=0 / bframes=6 / b_pyramid=1 / b_adapt=2 / b_bias=0 / direct=3 / wpredb=1 / keyint=250 / keyint_min=25 / scenecut=40 / rc=2pass / mbtree=0 / bitrate=4651 / ratetol=1.0 / qcomp=0.60 / qpmin=10 / qpmax=51 / qpstep=4 / cplxblur=20.0 / qblur=0.5 / ip_ratio=1.40 / pb_ratio=1.30 / aq=1:0.60
Language : English
Audio #2
ID : 2
Format : AC-3
Format/Info : Audio Coding 3
Codec ID : A_AC3
Duration : 2h 7mn
Bit rate mode : Constant
Bit rate : 384 Kbps
Channel(s) : 6 channels
Channel positions : Front: L C R, Surround: L R, LFE
Sampling rate : 48.0 KHz
Stream size : 349 MiB (6%)
Title : Russian - AC3 - 6ch, 48 kHz, 384 kbps
Language : Russian
Audio #3
ID : 3
Format : DTS
Format/Info : Digital Theater Systems
Codec ID : A_DTS
Duration : 2h 7mn
Bit rate mode : Constant
Bit rate : 1 510 Kbps
Channel(s) : 6 channels
Channel positions : Front: L C R, Surround: L R, LFE
Sampling rate : 48.0 KHz
Resolution : 24 bits
Stream size : 1.34 GiB (23%)
Title : English - DTS - 6ch, 48 kHz, 1536 kbps
Language : English
Text #4
ID : 4
Format : UTF-8
Codec ID : S_TEXT/UTF8
Codec ID/Info : UTF-8 Plain Text
Title : Russian - Commentary
Language : Russian
Text #5
ID : 5
Format : UTF-8
Codec ID : S_TEXT/UTF8
Codec ID/Info : UTF-8 Plain Text
Title : Russian - Full
Language : Russian
Text #6
ID : 6
Format : UTF-8
Codec ID : S_TEXT/UTF8
Codec ID/Info : UTF-8 Plain Text
Title : English - Commentary
Language : English
Text #7
ID : 7
Format : UTF-8
Codec ID : S_TEXT/UTF8
Codec ID/Info : UTF-8 Plain Text
Title : English - Full
Language : English

Скриншоты



Создавать темы 12-Окт-2011 10:05

[Профиль]  [ЛС] 

Rufatus

Стаж: 6 лет

Сообщений: 38

скорости дайте
Добавлено спустя 5 часов 10 минут 24 секунды:
adham_boy
скорости дай


Последний раз редактировалось: Rufatus (2011-11-08 17:43), всего редактировалось 1 раз

Создавать темы 08-Ноя-2011 17:43

[Профиль]  [ЛС] 

Rufatus

Стаж: 6 лет

Сообщений: 38

adham_boy
Вернись на раздачу скачивающих 3 и у всех 89,7 %

Создавать темы 28-Ноя-2011 11:58

[Профиль]  [ЛС] 
Показать сообщения:    
Ответить на тему

Текущее время: 18-Авг 17:50

Часовой пояс: UTC + 5



Вы не можете начинать темы
Вы не можете отвечать на сообщения
Вы не можете редактировать свои сообщения
Вы не можете удалять свои сообщения
Вы не можете голосовать в опросах
Вы не можете прикреплять файлы к сообщениям
Вы не можете скачивать файлы