Маунти. Капрал Юкона / The Mountie / Thе way of the West (Уайет Кларксон / Wyeth Clarkson) [2011, Канада, вестерн, DVDRip]

Ответить на тему
 

BulletprooF ®

Стаж: 6 лет 6 месяцев

Сообщений: 28

Маунти. Капрал Юкона / The Mountie / Thе way of the West- Год выпуска: 2011
Страна: Канада
Жанр: Вестерн
Продолжительность: 01:22:28
Перевод: Одноголосый закадровый -Режиссер: Уайет Кларксон / Wyeth Clarkson
В ролях: Эндрю Уолкер (Wade Grayling), Джессика Паре (Amethyst), Kestrel Martin (Cleora), Джон Уайлдмен (Robert), Андрей Ивченко (Pachek), Эрл Пастко (Olaf), Джордж Бьюза (Kleus), Тони Манч (Cobb), Мэттью Дж. Тейлор (Nikolai)-Описание: 1894 год, Территория Юкон. В те далёкие времена контроль над обширными и малонаселёнными западными территориями Канады осуществляла Северо-Западная Конная Полиция. В народе сотрудников конной полиции сокращённо называли маунти (mountie) и "красными мундирами" (red coats, за цвет униформы). На их плечи ложились не только обязанности охраны правопорядка в поселениях и регулирование отношений с коренными жителями этих мест - индейцами, но и контроль за незаконным сплавом и оборотом виски, предотвращение эпидемий, голода и внесение данных на топографические карты.
В небольшой лагерь русских поселенцев приезжает капрал маунти Грейлинг. Глава общины, латышский священник, сносно говорящий по-английски, уверяет капрала, что поселенцы занимаются фермерством, торговлей и не нарушают закон. Визит маунти превращается в неравную схватку, когда он понимает, что на самом деле поселение контролирует группа казаков-наркоторговцев...-Качество: DVDRip
Формат: AVI
Видео: XviD, 1047 Kbps, 640 х 272 pixels, 23.976 fps
Аудио: MPEG Layer 3, Joint stereo, 128 Kbps, 2 channels, 48.0 KHz

MediaInfo:

General
Complete name : d:\Рабочая папка\The.Mountie.2011.DVDRip.700MB.avi
Format : AVI
Format/Info : Audio Video Interleave
File size : 698 MiB
Duration : 1h 22mn
Overall bit rate : 1 184 Kbps
Writing application : VirtualDubModRus 1.5.10.2 (build 2542/release)
Writing library : VirtualDubMod build 2542/release
Copyright : SaM
Video
ID : 0
Format : MPEG-4 Visual
Format profile : Advanced [email protected]
Format settings, BVOP : 4
Format settings, QPel : No
Format settings, GMC : No warppoints
Format settings, Matrix : Default (MPEG)
Muxing mode : Packed bitstream
Codec ID : XVID
Codec ID/Hint : XviD
Duration : 1h 22mn
Bit rate : 1 047 Kbps
Width : 640 pixels
Height : 272 pixels
Display aspect ratio : 2.35:1
Frame rate : 23.976 fps
Color space : YUV
Chroma subsampling : 4:2:0
Bit depth : 8 bits
Scan type : Progressive
Compression mode : Lossy
Bits/(Pixel*Frame) : 0.251
Stream size : 617 MiB (88%)
Writing library : XviD 62
Audio
ID : 1
Format : MPEG Audio
Format version : Version 1
Format profile : Layer 3
Mode : Joint stereo
Mode extension : MS Stereo
Codec ID : 55
Codec ID/Hint : MP3
Duration : 1h 22mn
Bit rate mode : Constant
Bit rate : 128 Kbps
Channel(s) : 2 channels
Sampling rate : 48.0 KHz
Compression mode : Lossy
Stream size : 75.5 MiB (11%)
Alignment : Aligned on interleaves
Interleave, duration : 42 ms (1.00 video frame)
Interleave, preload duration : 504 ms
Writing library : LAME3.97
Encoding settings : -m j -V 4 -q 2 -lowpass 17 -b 128

Screenshots:






Последний раз редактировалось: BulletprooF (2011-10-16 08:52), всего редактировалось 1 раз

Создавать темы 16-Окт-2011 08:50

[Профиль]  [ЛС] 

MARVEL-S

Стаж: 6 лет

Сообщений: 139

Симпатии: 9

спасибо ay

Создавать темы 16-Окт-2011 08:57

[Профиль]  [ЛС] 

Adham

Стаж: 6 лет 11 месяцев

Сообщений: 72

Симпатии: 11

Спасибо земляк! ay az

Создавать темы 16-Окт-2011 10:29

[Профиль]  [ЛС] 

dwerty

Стаж: 6 лет 2 месяца

Сообщений: 39

Симпатии: 5

"...Казаки наркоторговцы..." это что то с чем то, это как все руские в шапках ушанках и медведей дома держут! ГЫЫЫ

Создавать темы 16-Окт-2011 12:06

[Профиль]  [ЛС] 

BulletprooF ®

Стаж: 6 лет 6 месяцев

Сообщений: 28

"...Казаки наркоторговцы..." это что то с чем то, это как все руские в шапках ушанках и медведей дома держут! ГЫЫЫ
Казаки -наркоторговцы пишут письмо канадскому шерифу -" Ти,шериф , чорт канадский, і проклятого чорта брат і товариш, самого Люципера секретар!Дай нам свободно наркотою заниматься. Вот так тебе казаки ответили, плешивый." )))

Создавать темы 16-Окт-2011 12:27

[Профиль]  [ЛС] 

dwerty

Стаж: 6 лет 2 месяца

Сообщений: 39

Симпатии: 5

[quote="BulletprooF"]
"Вот так тебе казаки ответили, плешивый." )))
Че то я не понял, кто плешивый???)))))))))))Интрига однако


Последний раз редактировалось: dwerty (2011-10-16 13:51), всего редактировалось 1 раз

Создавать темы 16-Окт-2011 13:51

[Профиль]  [ЛС] 

screamhead

Стаж: 6 лет 10 месяцев

Сообщений: 19

Симпатии: 2

"...Казаки наркоторговцы..." это что то с чем то, это как все руские в шапках ушанках и медведей дома держут! ГЫЫЫ
Казаки -наркоторговцы пишут письмо канадскому шерифу -" Ти,шериф , чорт канадский, і проклятого чорта брат і товариш, самого Люципера секретар!Дай нам свободно наркотою заниматься. Вот так тебе казаки ответили, плешивый." )))
Странный народ эти канадцы, а Картины нет Репина. Запорожцы пишут письмо турецкому султану.

Создавать темы 19-Окт-2011 10:12

[Профиль]  [ЛС] 
Показать сообщения:    
Ответить на тему

Текущее время: 20-Сен 03:21

Часовой пояс: UTC + 5



Вы не можете начинать темы
Вы не можете отвечать на сообщения
Вы не можете редактировать свои сообщения
Вы не можете удалять свои сообщения
Вы не можете голосовать в опросах
Вы не можете прикреплять файлы к сообщениям
Вы не можете скачивать файлы