Первый мститель / Captain America: The First Avenger (Джо Джонстон) [2011 г., фантастика, боевик, триллер, приключения, BDRip-720p]

Страницы :  1, 2  След.

Ответить на тему
 

ZD ®

Стаж: 6 лет 2 месяца

Сообщений: 10

Первый мститель
Captain America: The First Avenger

«When patriots become heroes»- -Информация о фильме:
Год выпуска: 2011
Страна: США, Marvel Enterprises
Жанр: фантастика, боевик, триллер, приключения
Продолжительность: 02:04:09
Перевод: Профессиональный (полное дублирование) [лицензия]
Режиссер: Джо Джонстон-В ролях: Крис Эванс, Хьюго Уивинг, Томми Ли Джонс, Стенли Туччи, Сэмюэл Л. Джексон, Ричард Армитэдж, Хейли Этвелл, Доминик Купер, Натали Дормер, Себастиан Стэн, Нил МакДонаф-Описание: Стив Роджерс добровольно соглашается принять участие в эксперименте, который превратит его в супер солдата, известного как Первый мститель. Роджерс вступает в вооруженные силы США вместе с Баки Барнсом и Пегги Картер, чтобы бороться с враждебной организацией ГИДРА, которой управляет безжалостный Красный Череп.-Рейтинг:
IMDB: 7.3/10 (44,407 голосов)
Кинопоиск: 6.567 (9,680 голосов)-Файл:
Качество: BDRip-720p
Формат: MKV
Видео кодек: H.26x
Видео: MPEG-4 AVC, 4840 Кбит/с, 1280x544, 23.976 кадр/с
Аудио №1: Русский (AC3, 6 ch, 640 Кбит/c)
Аудио №1: Английский (DTS, 6 ch, 1536 Кбит/c)
Субтитры: Русские, английские
-

MI

General
Complete name                    : Pervyj.mstitel.2011.x264.BDRip.720p.HD.mkv
Format                           : Matroska
File size                        : 6.06 GiB
Duration                         : 2h 4mn
Overall bit rate                 : 6 991 Kbps
Encoded date                     : UTC 2011-10-15 18:37:46
Writing application              : mkvmerge v4.9.1 ('Ich will') сборка от Jul 11 2011 23:53:15
Writing library                  : libebml v1.2.1 + libmatroska v1.1.1
Video
ID                               : 1
Format                           : AVC
Format/Info                      : Advanced Video Codec
Format profile                   : [email protected]
Format settings, CABAC           : Yes
Format settings, ReFrames        : 12 frames
Codec ID                         : V_MPEG4/ISO/AVC
Duration                         : 2h 4mn
Bit rate                         : 4 840 Kbps
Width                            : 1 280 pixels
Height                           : 544 pixels
Display aspect ratio             : 2.35:1
Frame rate                       : 23.976 fps
Color space                      : YUV
Chroma subsampling               : 4:2:0
Bit depth                        : 8 bits
Scan type                        : Progressive
Bits/(Pixel*Frame)               : 0.290
Stream size                      : 4.08 GiB (67%)
Writing library                  : x264 core 116 r2057 0ba8a9c
Encoding settings                : cabac=1 / ref=12 / deblock=1:-3:-3 / analyse=0x3:0x113 / me=umh / subme=11 / psy=1 / psy_rd=1.10:0.15 / mixed_ref=1 / me_range=32 / chroma_me=1 / trellis=2 / 8x8dct=1 / cqm=2 / deadzone=21,11 / fast_pskip=0 / chroma_qp_offset=-2 / threads=12 / sliced_threads=0 / nr=0 / decimate=1 / interlaced=0 / bluray_compat=0 / constrained_intra=0 / bframes=6 / b_pyramid=2 / b_adapt=2 / b_bias=0 / direct=3 / weightb=1 / open_gop=0 / weightp=2 / keyint=250 / keyint_min=23 / scenecut=40 / intra_refresh=0 / rc_lookahead=60 / rc=2pass / mbtree=1 / bitrate=4840 / ratetol=1.0 / qcomp=0.60 / qpmin=1 / qpmax=63 / qpstep=4 / cplxblur=20.0 / qblur=0.5 / vbv_maxrate=40000 / vbv_bufsize=30000 / nal_hrd=none / ip_ratio=1.40 / aq=1:0.80
Audio #1
ID                               : 2
Format                           : AC-3
Format/Info                      : Audio Coding 3
Mode extension                   : CM (complete main)
Codec ID                         : A_AC3
Duration                         : 2h 4mn
Bit rate mode                    : Constant
Bit rate                         : 640 Kbps
Channel(s)                       : 6 channels
Channel positions                : Front: L C R, Side: L R, LFE
Sampling rate                    : 48.0 KHz
Bit depth                        : 16 bits
Stream size                      : 569 MiB (9%)
Language                         : Russian
Audio #2
ID                               : 3
Format                           : DTS
Format/Info                      : Digital Theater Systems
Codec ID                         : A_DTS
Duration                         : 2h 4mn
Bit rate mode                    : Constant
Bit rate                         : 1 510 Kbps
Channel(s)                       : 6 channels
Channel positions                : Front: L C R, Side: L R, LFE
Sampling rate                    : 48.0 KHz
Bit depth                        : 24 bits
Stream size                      : 1.31 GiB (22%)
Language                         : English
Text #1
ID                               : 4
Format                           : UTF-8
Codec ID                         : S_TEXT/UTF8
Codec ID/Info                    : UTF-8 Plain Text
Language                         : Russian
Text #2
ID                               : 5
Format                           : UTF-8
Codec ID                         : S_TEXT/UTF8
Codec ID/Info                    : UTF-8 Plain Text
Language                         : English

Скриншоты



Последний раз редактировалось: ZD (2011-10-17 09:04), всего редактировалось 2 раз(а)

Создавать темы 16-Окт-2011 13:43

[Профиль]  [ЛС] 

Nevermind

Стаж: 7 лет 3 месяца

Сообщений: 123

Симпатии: 4

блин, это все канеш замечательно, но с такой скоростью я это скачаю как минимум через месяц ))))

Создавать темы 17-Окт-2011 11:43

[Профиль]  [ЛС] 

Faxa

Стаж: 7 лет 4 месяца

Сообщений: 115

Симпатии: 4

Я бы качнул, но блин HDD у меня на fat32 стоит

Создавать темы 17-Окт-2011 13:38

[Профиль]  [ЛС] 

ildar333

Стаж: 6 лет 5 месяцев

Сообщений: 1

ar ar ar

Создавать темы 30-Ноя-2011 19:15

[Профиль]  [ЛС] 

yuragreek

Стаж: 6 лет 7 месяцев

Сообщений: 125

Симпатии: 3

Парни!!! Газу Прибавьте Плизз!!!

Создавать темы 01-Дек-2011 17:55

[Профиль]  [ЛС] 

leito_studio

Стаж: 5 лет 9 месяцев

Сообщений: 5

а как скачивать что то не пойму

Создавать темы 04-Дек-2011 13:55

[Профиль]  [ЛС] 

bambuk

Стаж: 5 лет 10 месяцев

Сообщений: 30

Программу скачай, и качай !!

Создавать темы 04-Дек-2011 14:46

[Профиль]  [ЛС] 

leito_studio

Стаж: 5 лет 9 месяцев

Сообщений: 5

какую?

Создавать темы 04-Дек-2011 15:08

[Профиль]  [ЛС] 

bambuk

Стаж: 5 лет 10 месяцев

Сообщений: 30

Торент называеться !!
Добавлено спустя 1 минута 31 секунда:
uTorrent (рекомендуемый: 2.0/2.0.4) на главной странице есть скачай прогу!!!


Последний раз редактировалось: bambuk (2011-12-04 15:18), всего редактировалось 1 раз

Создавать темы 04-Дек-2011 15:18

[Профиль]  [ЛС] 

Mr_JIN

Стаж: 5 лет 4 месяца

Сообщений: 9

Помогите скачать Первый мститель Captain America: The First Avenger, Админ помогите плз, поранее Спасибо!!!

Создавать темы 11-Июн-2012 14:28

[Профиль]  [ЛС] 

spirtyaga

Стаж: 6 лет 4 месяца

Сообщений: 4

Люди!!! Встаньте на раздачу!!!

Создавать темы 02-Авг-2012 00:41

[Профиль]  [ЛС] 

Tristan94

Стаж: 4 года 11 месяцев

Сообщений: 33

Скачавшие встаньте пожалуйста на раздачу!

Создавать темы 24-Дек-2012 16:56

[Профиль]  [ЛС] 

Tristan94

Стаж: 4 года 11 месяцев

Сообщений: 33

Сидеры встаньте на раздачу!!!!!

Создавать темы 27-Дек-2012 13:40

[Профиль]  [ЛС] 

Morphing

Стаж: 5 лет 2 месяца

Сообщений: 211

Симпатии: 37

Пожалуйста дайте нормальную скорость так мы долго не скачаем

Создавать темы 27-Дек-2012 15:35

[Профиль]  [ЛС] 

mara_pro

Стаж: 7 лет 2 месяца

Сообщений: 19

плиз встанте на раздачу!? 166 мб осталось. заранее спасибо

Создавать темы 10-Сен-2014 14:01

[Профиль]  [ЛС] 
Показать сообщения:    
Ответить на тему

Текущее время: 23-Сен 03:30

Часовой пояс: UTC + 5



Вы не можете начинать темы
Вы не можете отвечать на сообщения
Вы не можете редактировать свои сообщения
Вы не можете удалять свои сообщения
Вы не можете голосовать в опросах
Вы не можете прикреплять файлы к сообщениям
Вы не можете скачивать файлы