Сумасшедшая езда 3D / Drive Angry 3D (Патрик Люссье/Patrick Lussier) [2011 г., фэнтези, боевик, триллер, криминал]

Страницы :  1, 2  След.

Ответить на тему
 

anviko ®

Стаж: 6 лет 8 месяцев

Сообщений: 84

Симпатии: 3

Сумасшедшая езда 3D / Drive Angry 3D Год выпуска: 2011
Страна: США
Жанр: фэнтези, боевик, триллер, криминал
Продолжительность: 01:44:29
Перевод: Профессиональный (полное дублирование)
Режиссер: Патрик Люссье/Patrick Lussier
В ролях: Николас Кейдж, Эмбер Хёрд, Уильям Фихтнер, Билли Бёрк, Дэвид Морс, Тодд Фармер, Криста Кэмпбелл, Шарлотта Росс, Том Аткинс, Джек МакГи
Описание: В центре событий герой, идущий по следу негодяев, убивших его дочь. Главный герой «слетает с катушек», прыгает за руль своего автомобиля и начинает мстить, оставляя по обочинам дороги трупы похитителей..
Формат 3D: Анаглиф red-cyan (Дюбуа)
Формат: MKV
Видео кодек: x264
Аудио кодек: AC3
Видео: AVC / PAL / 1920x1080 / 16:9 / 9 834 Kbps / 23.976 fps
Аудио: Русский / Дублированный / 6 channels / 48.0 KHz / 384 Kbps

медио

General
Format : Matroska
File size : 7.61 GiB
Duration : 1h 44mn
Overall bit rate : 10.4 Mbps
Encoded date : UTC 2011-06-26 07:10:10
Writing application : mkvmerge v4.4.0 ('Die Wiederkehr') сборка от Oct 31 2010 21:52:48
Writing library : libebml v1.0.0 + libmatroska v1.0.0
Video
ID : 1
Format : AVC
Format/Info : Advanced Video Codec
Format profile : [email protected]
Format settings, CABAC : Yes
Format settings, ReFrames : 4 frames
Format settings, GOP : M=7, N=57
Codec ID : V_MPEG4/ISO/AVC
Duration : 1h 44mn
Bit rate : 9 834 Kbps
Width : 1 920 pixels
Height : 1 080 pixels
Display aspect ratio : 16:9
Frame rate : 23.976 fps
Color space : YUV
Chroma subsampling : 4:2:0
Bit depth : 8 bits
Scan type : Progressive
Bits/(Pixel*Frame) : 0.198
Stream size : 7.18 GiB (94%)
Title : Anaglyph Dubois by Boss-Master
Writing library : x264 core 115 r1995 c1e60b9
Encoding settings : cabac=1 / ref=4 / deblock=1:-2:-2 / analyse=0x3:0x113 / me=umh / subme=7 / psy=1 / psy_rd=1.00:0.15 / mixed_ref=1 / me_range=16 / chroma_me=1 / trellis=2 / 8x8dct=1 / cqm=0 / deadzone=21,11 / fast_pskip=1 / chroma_qp_offset=-3 / threads=6 / sliced_threads=0 / nr=0 / decimate=1 / interlaced=0 / bluray_compat=0 / constrained_intra=0 / bframes=6 / b_pyramid=0 / b_adapt=2 / b_bias=0 / direct=3 / weightb=1 / open_gop=0 / weightp=2 / keyint=250 / keyint_min=23 / scenecut=40 / intra_refresh=0 / rc_lookahead=40 / rc=crf / mbtree=1 / crf=18.0 / qcomp=0.60 / qpmin=10 / qpmax=69 / qpstep=4 / ip_ratio=1.40 / aq=1:1.00
Language : Russian
Audio
ID : 2
Format : AC-3
Format/Info : Audio Coding 3
Mode extension : CM (complete main)
Codec ID : A_AC3
Duration : 1h 44mn
Bit rate mode : Constant
Bit rate : 384 Kbps
Channel(s) : 6 channels
Channel positions : Front: L C R, Side: L R, LFE
Sampling rate : 48.0 KHz
Bit depth : 16 bits
Compression mode : Lossy
Stream size : 287 MiB (4%)
Language : Russian

Скриншоты



 


Последний раз редактировалось: anviko (2012-01-12 21:08), всего редактировалось 2 раз(а)

Создавать темы 17-Окт-2011 12:29

[Профиль]  [ЛС] 

Уша

Стаж: 7 лет 1 месяц

Сообщений: 92

Симпатии: 1

сделайте золотую или серебреную раздачу

Создавать темы 17-Окт-2011 14:16

[Профиль]  [ЛС] 

snaider

Стаж: 6 лет 7 месяцев

Сообщений: 21

Симпатии: 1

было же написанно... присвоение золота и серебра "не освобождает от ответственности", ой то есть освобождает того кто прилепит...
короче эта фишка здесь не работает а чинить её никто не хочет, посему лейбл золота или серебра представляется в свете элементарной заманухи, что не есть хорошо и не делает чести поставившему...

Создавать темы 19-Окт-2011 20:39

[Профиль]  [ЛС] 

Уша

Стаж: 7 лет 1 месяц

Сообщений: 92

Симпатии: 1

понятно пускай тогда раздайт та

Создавать темы 20-Окт-2011 07:34

[Профиль]  [ЛС] 

anviko ®

Стаж: 6 лет 8 месяцев

Сообщений: 84

Симпатии: 3

с двух раздаю... качай на здороье. впеореди- зеленый фонарь...

Создавать темы 22-Окт-2011 01:04

[Профиль]  [ЛС] 

sapfir

Стаж: 6 лет 5 месяцев

Сообщений: 49

с двух раздаю... качай на здороье. впеореди- зеленый фонарь...
чёт не видно что с двух, 5 килобайт это по вашему нормально? дайте скорости если уж раздаёте

Создавать темы 23-Окт-2011 18:42

[Профиль]  [ЛС] 

anviko ®

Стаж: 6 лет 8 месяцев

Сообщений: 84

Симпатии: 3

с двух раздаю... качай на здороье. впеореди- зеленый фонарь...
чёт не видно что с двух, 5 килобайт это по вашему нормально? дайте скорости если уж раздаёте
раздаю с двух серваков.. почему не можете взять- не знаю...

Создавать темы 24-Окт-2011 09:04

[Профиль]  [ЛС] 

Gorilla

Стаж: 6 лет 7 месяцев

Сообщений: 91

Симпатии: 11

с двух раздаю... качай на здороье. впеореди- зеленый фонарь...
чёт не видно что с двух, 5 килобайт это по вашему нормально? дайте скорости если уж раздаёте
у меня тоже выше 5 не идет((может с настройками трабла у релизера?а так респект за релиз ay

Создавать темы 24-Окт-2011 16:09

[Профиль]  [ЛС] 

anviko ®

Стаж: 6 лет 8 месяцев

Сообщений: 84

Симпатии: 3

сегодня так же?

Создавать темы 24-Окт-2011 17:12

[Профиль]  [ЛС] 

Gorilla

Стаж: 6 лет 7 месяцев

Сообщений: 91

Симпатии: 11

сегодня так же?
про других незнаю,но у меня до 30 кб.с.,поднялась!впринципе не тороплюсь,дня за 4 стяну!мне пойдет,спс! ay

Создавать темы 25-Окт-2011 01:09

[Профиль]  [ЛС] 

sapfir

Стаж: 6 лет 5 месяцев

Сообщений: 49

в фильме очень низкий цвет, почти чёрно- белое кино, потому стереопара на уровень выше готового анаглифа, если конечно она не конвертирована с 2D в 3D как некоторые в данном разделе, а так эфекты есть, просто жалко такой размер а не стерео


Последний раз редактировалось: sapfir (2011-11-04 00:47), всего редактировалось 1 раз

Создавать темы 04-Ноя-2011 00:47

[Профиль]  [ЛС] 

Tolik4523

Стаж: 5 лет 8 месяцев

Сообщений: 271

Симпатии: 27

Это что за раздача он же не качается. Может снять ограничение с отдачи например я отдаю от 40 до 80.

Создавать темы 23-Янв-2012 08:33

[Профиль]  [ЛС] 

poleglot

Стаж: 7 лет 1 месяц

Сообщений: 30

люди раздайте этот фильм уже наконец не могу никак скачать ато

Создавать темы 26-Фев-2012 08:57

[Профиль]  [ЛС] 

Gorilla

Стаж: 6 лет 7 месяцев

Сообщений: 91

Симпатии: 11

люди раздайте этот фильм уже наконец не могу никак скачать ато
свой релиз дораздам и присоеденюсь к раздаче!

Создавать темы 26-Фев-2012 11:01

[Профиль]  [ЛС] 

poleglot

Стаж: 7 лет 1 месяц

Сообщений: 30

Gorilla, буду сутками ждать добром браток!!!

Создавать темы 26-Фев-2012 23:31

[Профиль]  [ЛС] 
Показать сообщения:    
Ответить на тему

Текущее время: 25-Сен 18:10

Часовой пояс: UTC + 5



Вы не можете начинать темы
Вы не можете отвечать на сообщения
Вы не можете редактировать свои сообщения
Вы не можете удалять свои сообщения
Вы не можете голосовать в опросах
Вы не можете прикреплять файлы к сообщениям
Вы не можете скачивать файлы