Пастырь / Priest (Скотт Чарльз Стюарт) [2011 г., ужасы, фантастика, боевик, триллер, DVDRip]

Страницы :  1, 2  След.

Ответить на тему
 

anviko ®

Стаж: 6 лет 8 месяцев

Сообщений: 84

Симпатии: 3

Пастырь / Priest Год выпуска: 2011
Страна: США
Жанр: ужасы, фантастика, боевик, триллер
Продолжительность: 87 мин.
Перевод: Профессиональный (полное дублирование)
Режиссер: Скотт Чарльз Стюарт
В ролях: Пол Беттани Карл Урбан Кэм Жиганде Мэгги Кью Лили Коллинз Брэд Дуриф Стивен Мойер Кристофер Пламмер Алан Дэйл Медкен Эмик
Описание: Далекое будущее. Миром правят религия и церковь. Священник, нарушая все церковные запреты, пытается выследить банду вампиров, похитивших его племянницу. В поисках ему помогают шериф и монахиня.
Формат 3Д: Анаглиф (Дюбуа)
Качество: BDRip
Формат: MKV
Видео кодек: Другой MPEG4
Аудио кодек: AC3
Видео: AVC / PAL / 1920x1080 / 16:9 / 9 834 Kbps / 23.976 fps
Аудио: Русский / Дублированный / 6 channels / 48.0 KHz / 448 Kbps

Медио

General
Format : Matroska
File size : 4.99 GiB
Duration : 1h 27mn
Overall bit rate : 8 174 Kbps
Encoded date : UTC 2011-08-04 11:26:12
Writing application : mkvmerge v4.4.0 ('Die Wiederkehr') сборка от Oct 31 2010 21:52:48
Writing library : libebml v1.0.0 + libmatroska v1.0.0
Video
ID : 1
Format : AVC
Format/Info : Advanced Video Codec
Format profile : High@L4.0
Format settings, CABAC : Yes
Format settings, ReFrames : 4 frames
Muxing mode : Container profile=Unknown@4.0
Codec ID : V_MPEG4/ISO/AVC
Duration : 1h 27mn
Bit rate : 7 116 Kbps
Width : 1 920 pixels
Height : 1 080 pixels
Display aspect ratio : 16:9
Frame rate : 23.976 fps
Resolution : 8 bits
Colorimetry : 4:2:0
Scan type : Progressive
Bits/(Pixel*Frame) : 0.143
Stream size : 4.34 GiB (87%)
Title : Anaglyph Dubois by Boss-Master
Writing library : x264 core 115 r1995 c1e60b9
Encoding settings : cabac=1 / ref=4 / deblock=1:-2:-2 / analyse=0x3:0x113 / me=umh / subme=7 / psy=1 / psy_rd=1.00:0.15 / mixed_ref=1 / me_range=16 / chroma_me=1 / trellis=2 / 8x8dct=1 / cqm=0 / deadzone=21,11 / fast_pskip=1 / chroma_qp_offset=-3 / threads=6 / sliced_threads=0 / nr=0 / decimate=1 / interlaced=0 / bluray_compat=0 / constrained_intra=0 / bframes=6 / b_pyramid=0 / b_adapt=2 / b_bias=0 / direct=3 / weightb=1 / open_gop=0 / weightp=2 / keyint=250 / keyint_min=23 / scenecut=40 / intra_refresh=0 / rc_lookahead=40 / rc=crf / mbtree=1 / crf=18.0 / qcomp=0.60 / qpmin=10 / qpmax=69 / qpstep=4 / ip_ratio=1.40 / aq=1:1.00
Audio #1
ID : 2
Format : AC-3
Format/Info : Audio Coding 3
Codec ID : A_AC3
Duration : 1h 27mn
Bit rate mode : Constant
Bit rate : 448 Kbps
Channel(s) : 6 channels
Channel positions : Front: L C R, Surround: L R, LFE
Sampling rate : 48.0 KHz
Stream size : 280 MiB (5%)
Language : Russian
Audio #2
ID : 3
Format : AC-3
Format/Info : Audio Coding 3
Codec ID : A_AC3
Duration : 1h 27mn
Bit rate mode : Constant
Bit rate : 448 Kbps
Channel(s) : 6 channels
Channel positions : Front: L C R, Surround: L R, LFE
Sampling rate : 48.0 KHz
Stream size : 280 MiB (5%)

Скриншоты




 

Создавать темы 17-Окт-2011 15:20

[Профиль]  [ЛС] 

D.J. FoX

Стаж: 6 лет 5 месяцев

Сообщений: 45

Симпатии: 1

anviko
Братка раздавай уже почему не качает !?

Создавать темы 21-Окт-2011 00:59

[Профиль]  [ЛС] 

anviko ®

Стаж: 6 лет 8 месяцев

Сообщений: 84

Симпатии: 3

anviko
Братка раздавай уже почему не качает !?

с двух раздаю... качай на здороье. впеореди- зеленый фонарь...

Создавать темы 22-Окт-2011 01:04

[Профиль]  [ЛС] 

D.J. FoX

Стаж: 6 лет 5 месяцев

Сообщений: 45

Симпатии: 1

никак не могу скачать     

Создавать темы 24-Ноя-2011 23:47

[Профиль]  [ЛС] 

D.J. FoX

Стаж: 6 лет 5 месяцев

Сообщений: 45

Симпатии: 1

скорость 14 kb/s качает bu ta

Создавать темы 28-Ноя-2011 14:49

[Профиль]  [ЛС] 

Rst

Стаж: 6 лет 10 месяцев

Сообщений: 38

Симпатии: 1

dayte SKOROST pojalusta ta

Создавать темы 19-Апр-2012 23:45

[Профиль]  [ЛС] 

Tolik4523

Стаж: 5 лет 8 месяцев

Сообщений: 271

Симпатии: 27

anviko, куда вообще залиты скрины с твоих раздач, не думаю что кто-то захочет
качать кота в мешке.

Создавать темы 16-Фев-2013 16:19

[Профиль]  [ЛС] 

Saidov

Стаж: 4 года 7 месяцев

Сообщений: 44

дайте скорость

Создавать темы 07-Июн-2013 08:43

[Профиль]  [ЛС] 

qurt2

Стаж: 5 лет

Сообщений: 7

встанте на раздачу пож 300мб осталос

Создавать темы 17-Авг-2013 13:15

[Профиль]  [ЛС] 

tamasitto

Стаж: 4 года 1 месяц

Сообщений: 8

помогите скачать пожалуйста

Создавать темы 08-Сен-2013 18:15

[Профиль]  [ЛС] 

tamasitto

Стаж: 4 года 1 месяц

Сообщений: 8

встаньте на раздачу очень нужен этот фильм

Создавать темы 08-Сен-2013 18:17

[Профиль]  [ЛС] 

tirrand

Стаж: 4 года 1 месяц

Сообщений: 4

ребята тока что купил 3D телик не терпеться посмотреть этот филмь пожалуйста встаньте на раздачу

Создавать темы 28-Сен-2013 13:50

[Профиль]  [ЛС] 

Vlad7667

Стаж: 4 года 11 месяцев

Сообщений: 196

Симпатии: 187

Формат:3D анаглиф,на 3d телеке совсем не тру,качай горизонтальную или вертикальную стереопару

Создавать темы 28-Сен-2013 17:28

[Профиль]  [ЛС] 

vovik1

Стаж: 4 года 4 месяца

Сообщений: 49

Симпатии: 1

кто нибудь отзовитесь! скорости нет,чуть осталось

Создавать темы 12-Дек-2013 18:46

[Профиль]  [ЛС] 

bekafresh

Стаж: 3 года 8 месяцев

Сообщений: 19

Симпатии: 1

скорость люди !

Создавать темы 11-Янв-2014 09:40

[Профиль]  [ЛС] 
Показать сообщения:    
Ответить на тему

Текущее время: 24-Сен 02:49

Часовой пояс: UTC + 5



Вы не можете начинать темы
Вы не можете отвечать на сообщения
Вы не можете редактировать свои сообщения
Вы не можете удалять свои сообщения
Вы не можете голосовать в опросах
Вы не можете прикреплять файлы к сообщениям
Вы не можете скачивать файлы