Кунг-фу Панда 2 / Kung Fu Panda 2 (2011/BDRip/1080p) (Дженнифер Ю) [2011 г., мультфильм, боевик, комедия, приключения, семейный]

Страницы :  1, 2  След.

Ответить на тему
 

alf-corp ®

Стаж: 6 лет 11 месяцев

Сообщений: 8

Симпатии: 1

Кунг-фу Панда 2 / Kung Fu Panda 2 (2011/BDRip/1080p)- Год выпуска: 2011
Страна: США, DreamWorks Animation
Жанр: мультфильм, боевик, комедия, приключения, семейный
Продолжительность: 91
Перевод: Профессиональный (полное дублирование)
-Режиссер: Дженнифер Ю-В главных ролях: Джек Блэк, Анджелина Джоли, Дастин Хоффман, Гари Олдман, Джеки Чан, Сет Роген, Люси Лью, Дэвид Кросс, Джеймс Хонг, Мишель Йео ...-Роли дублировали: Михаил Галустян, Ольга Зубкова, Александр Хотченков, Василий Дахненко, Диомид Виноградов...-Описание: Панда По наконец-то исполнит свою мечту, станет Воином Дракона и со своими друзьями и мастерами кунг-фу — Неистовой Пятеркой — защитит Великую Долину от страшного злодея и его легиона…-Качество: BDRip 1080p
Формат: MKV
Видео кодек: H.26x
Аудио кодек: AC3
Видео: AVC,1920x816, 6 280 Kbps, 23.976
|
Аудио: 48 kHz, AC3, 3/2 (L,C,R,l,r) + LFE ch, ~448.00 kbps

Full Media Info

General

General
Unique ID : 178968668440521170989213538066812320206 (0x86A41C9CACCE03AFBD12FBAB76F339CE)
Complete name : Кунг Фу Панда 2.BDRip.1080p.2011.mkv
Format : Matroska
File size : 4.25 GiB
Duration : 1h 30mn
Overall bit rate : 6 726 Kbps
Encoded date : UTC 2011-10-18 18:06:31
Writing application : mkvmerge v5.0.0 ('Die Wahre Liebe') built on Sep 25 2011 20:33:49
Writing library : libebml v1.2.2 + libmatroska v1.3.0

Video #1

ID : 1
Format : AVC
Format/Info : Advanced Video Codec
Format profile : [email protected]
Format settings, CABAC : Yes
Format settings, ReFrames : 5 frames
Format settings, GOP : M=4, N=54
Muxing mode : Header stripping
Codec ID : V_MPEG4/ISO/AVC
Duration : 1h 30mn
Bit rate : 6 280 Kbps
Width : 1 920 pixels
Height : 816 pixels
Display aspect ratio : 2.35:1
Frame rate : 23.976 fps
Color space : YUV
Chroma subsampling : 4:2:0
Bit depth : 8 bits
Scan type : Progressive
Bits/(Pixel*Frame) : 0.167
Stream size : 3.88 GiB (91%)
Writing library : x264 core 118 r2085 8a62835
Encoding settings : cabac=1 / ref=5 / deblock=1:0:0 / analyse=0x3:0x113 / me=umh / subme=7 / psy=1 / psy_rd=1.00:0.00 / mixed_ref=1 / me_range=16 / chroma_me=1 / trellis=1 / 8x8dct=1 / cqm=0 / deadzone=21,11 / fast_pskip=0 / chroma_qp_offset=-2 / threads=18 / sliced_threads=0 / nr=0 / decimate=1 / interlaced=0 / bluray_compat=0 / constrained_intra=0 / bframes=3 / b_pyramid=2 / b_adapt=1 / b_bias=0 / direct=1 / weightb=1 / open_gop=0 / weightp=2 / keyint=250 / keyint_min=23 / scenecut=40 / intra_refresh=0 / rc_lookahead=40 / rc=2pass / mbtree=1 / bitrate=6280 / ratetol=1.0 / qcomp=0.60 / qpmin=0 / qpmax=69 / qpstep=4 / cplxblur=20.0 / qblur=0.5 / ip_ratio=1.40 / aq=1:1.00

Audio #1

Language : Russian
Title : AC3 5.1 @ 448 kbps - Дублированный
ID : 2
Format : AC-3
Format/Info : Audio Coding 3
Mode extension : CM (complete main)
Muxing mode : Header stripping
Codec ID : A_AC3
Duration : 1h 30mn
Bit rate mode : Constant
Bit rate : 448 Kbps
Channel(s) : 6 channels
Channel positions : Front: L C R, Side: L R, LFE
Sampling rate : 48.0 KHz
Bit depth : 16 bits
Compression mode : Lossy
Stream size : 290 MiB (7%)

Скриншоты



Создавать темы 19-Окт-2011 13:31

[Профиль]  [ЛС] 

yuragreek

Стаж: 6 лет 9 месяцев

Сообщений: 125

Симпатии: 3

Спасибо Автору!!! ay

Создавать темы 19-Окт-2011 19:31

[Профиль]  [ЛС] 

botir6161

Стаж: 6 лет 7 месяцев

Сообщений: 4

Ваууу класс ay Пасиба Аффтору az

Создавать темы 19-Окт-2011 20:01

[Профиль]  [ЛС] 

Rustam777

Стаж: 6 лет 5 месяцев

Сообщений: 89

Симпатии: 1

СПС, а скорости можно? ay ay ay

Создавать темы 19-Окт-2011 21:32

[Профиль]  [ЛС] 

Umar ibn Xattob

Стаж: 7 лет 2 месяца

Сообщений: 39

А звук чистый? Не как в Трансформерах?

Создавать темы 20-Окт-2011 14:55

[Профиль]  [ЛС] 

akiev

Стаж: 6 лет 10 месяцев

Сообщений: 5

ay

Создавать темы 20-Окт-2011 15:40

[Профиль]  [ЛС] 

asdf

Стаж: 6 лет 8 месяцев

Сообщений: 11

дайте скорости!!!

Создавать темы 20-Окт-2011 16:28

[Профиль]  [ЛС] 

buqalamun

Стаж: 7 лет 11 месяцев

Сообщений: 5

спасибо!

Создавать темы 20-Окт-2011 19:41

[Профиль]  [ЛС] 

asdf

Стаж: 6 лет 8 месяцев

Сообщений: 11

alf-corp ® дай скорости пожалуйста, нудно качать со скоростью 15 kb/сек... ac

Создавать темы 21-Окт-2011 16:22

[Профиль]  [ЛС] 

[email protected]_93

Стаж: 6 лет 7 месяцев

Сообщений: 17

Симпатии: 2

Классный релиз чувак!!!Спасибо!!! ay ay ay az az az

Создавать темы 21-Окт-2011 19:33

[Профиль]  [ЛС] 

Suxrob89

Стаж: 7 лет 3 месяца

Сообщений: 933

Симпатии: 564

вернис на раздачу

Создавать темы 22-Окт-2011 14:06

[Профиль]  [ЛС] 

Rustam777

Стаж: 6 лет 5 месяцев

Сообщений: 89

Симпатии: 1

СПС за реализ ay az
am aq Уважаемые СИДЫ прошу вас кто скачает не уходите с раздач, так как файл в MKV весит 4 метра качать тяжело? Я ПОНИМАЮ ЧТО И ДРУГОЕ ХОЧЕТСЯ, ПУСТЬ МИНИМУМ СКОРОСТИ ТОЛЬКО НЕ УДИТЕ С РАЗДАЧИ, ПОДУМАЕТ О ДРУГИХ ,,,,,,........!!!!!!! ВОТ В ДАННОЕ ВРЕМЯ СИДИРУЮЩИХ НЕТ. :bd:
:cd: ВОТ И ВСЕ ВСТАЛИ НА 97.3 ПРОЦЕНТА. 45 ЛИЧЕРОВ, А 15 ЧЕЛ. МУЧАЮТСЯ. bu ta ta ta ta ta ta ta ta ta ta ta ta ta ta


Последний раз редактировалось: Rustam777 (2011-10-22 20:52), всего редактировалось 3 раз(а)

Создавать темы 22-Окт-2011 20:52

[Профиль]  [ЛС] 

asdf

Стаж: 6 лет 8 месяцев

Сообщений: 11

во во я тебя очень даже понимаю ac ac ac ac
3 день мучаюсь... 4,20 скачал а теперь приём 0 aq
Добавлено спустя 1 минута 30 секунд:
alf-corp чувак потерпи пожалуйста 5 мин, я докачаю и сам начну раздавать на высокой скорости.


Последний раз редактировалось: asdf (2011-10-22 22:26), всего редактировалось 1 раз

Создавать темы 22-Окт-2011 22:26

[Профиль]  [ЛС] 

becks_22

Стаж: 6 лет 11 месяцев

Сообщений: 18

angliskiy yazik yest

Создавать темы 23-Окт-2011 14:15

[Профиль]  [ЛС] 

[email protected]_93

Стаж: 6 лет 7 месяцев

Сообщений: 17

Симпатии: 2

Почему у меня не качает, но сидеры есть и они раздают. Я этого не понимаю.Объясните мне пожалуйста.

Создавать темы 24-Окт-2011 22:32

[Профиль]  [ЛС] 
Показать сообщения:    
Ответить на тему

Текущее время: 18-Ноя 04:03

Часовой пояс: UTC + 5



Вы не можете начинать темы
Вы не можете отвечать на сообщения
Вы не можете редактировать свои сообщения
Вы не можете удалять свои сообщения
Вы не можете голосовать в опросах
Вы не можете прикреплять файлы к сообщениям
Вы не можете скачивать файлы