Кунг-фу Панда: Секреты неистовой пятерки (Бонус) / Kung Fu Panda: Secrets of the Furious Five (Bonus) (Раман Хюи) [2008 г., мультфильм, комедия, DVDRip]

Ответить на тему
 

jumanji ®

Стаж: 6 лет 6 месяцев

Сообщений: 18

-Кунг-фу Панда: Секреты неистовой пятерки /Бонус/
Kung Fu Panda: Secrets of the Furious Five /Bonus/-- Информация о фильме:
Год выпуска: 2008
Страна: США
Жанр: мультфильм, комедия
Продолжительность: 00:24:36
Перевод: Профессиональный (многоголосый, закадровый)
Режиссер: Раман Хюи
В ролях: Джек Блэк, Дастин Хоффман, Уилл Шэдли, Eamon Pirruccello, Грэйс Ролек, Макс Кох, Том Оуенс, Кэрол Кейн, Джон Ди Маджио, Стивен Кеарин и др.
На русский язык озвучивали: Даниил Эльдаров, Лиза Мартиросова, Диомид Виноградов.-Описание:Мультфильм «Кунг-фу Панда: Секреты неистовой пятерки» – мультипликационный фильм производства США, который вышел на экраны в 2008 году. Он является своеобразным продолжением весьма популярной картины «Кунг-фу Панда». Премьера данного фильма произошла 9 ноября 2008 года. Эта часть имеет весьма поучительный смысл, который заключается в том, что не все рождаются героями. Вернее ими не рождаются, ими становятся. В этой короткометражной части задействованы все персонажи, что и в первом мультфильме.
Сюжет фильма «Кунг-фу Панда: Секреты неистовой пятерки» повествуют о начале приключений верных друзей. Рассказаны неизвестные истории с участием любимых героев. Панды По, Богомола, Тигрицы, Гадюки, Обезьяны и Журавля. Эта картина расскажет о буднях и учении любимых героев. О том, как они такими стали…
-Файл:
Качество: DVDRip
Формат: AVI
Видео кодек: XviD
Аудио кодек: AC3
Видео: 863 kbps, 640x352, 16/9, 23.976 fps
Аудио: AC3, 48 kHz, 448 kbps (6Ch)-

MediaInfo

-General
Complete name : Kung - Fu_Panda_Sekrety_Neistovoj_Pjaterki.avi
Format : AVI
Format/Info : Audio Video Interleave
File size : 232 MiB
Duration : 24mn 36s
Overall bit rate : 1 320 Kbps-Video
ID : 0
Format : MPEG-4 Visual
Format profile : Advanced [email protected]
Format settings, BVOP : 2
Format settings, QPel : No
Format settings, GMC : No warppoints
Format settings, Matrix : Default (H.263)
Codec ID : XVID
Codec ID/Hint : XviD
Duration : 24mn 36s
Bit rate : 863 Kbps
Width : 640 pixels
Height : 352 pixels
Display aspect ratio : 16:9
Frame rate : 23.976 fps
Color space : YUV
Chroma subsampling : 4:2:0
Bit depth : 8 bits
Scan type : Progressive
Compression mode : Lossy
Bits/(Pixel*Frame) : 0.160
Stream size : 152 MiB (65%)
Writing library : XviD 1.2.0SMP (UTC 2006-01-08)-Audio
ID : 1
Format : AC-3
Format/Info : Audio Coding 3
Mode extension : CM (complete main)
Codec ID : 2000
Duration : 24mn 35s
Bit rate mode : Constant
Bit rate : 448 Kbps
Channel(s) : 6 channels
Channel positions : Front: L C R, Side: L R, LFE
Sampling rate : 48.0 KHz
Bit depth : 16 bits
Compression mode : Lossy
Delay relative to video : 500ms
Stream size : 78.8 MiB (34%)
Alignment : Split accross interleaves
Interleave, duration : 42 ms (1.00 video frame)
Interleave, preload duration : 500 ms-
-

Screenshots

- - - - -
-


Последний раз редактировалось: jumanji (2011-10-20 00:46), всего редактировалось 6 раз(а)

Создавать темы 19-Окт-2011 22:47

[Профиль]  [ЛС] 

jumanji ®

Стаж: 6 лет 6 месяцев

Сообщений: 18

)))

Создавать темы 20-Окт-2011 12:40

[Профиль]  [ЛС] 
Показать сообщения:    
Ответить на тему

Текущее время: 23-Авг 15:06

Часовой пояс: UTC + 5



Вы не можете начинать темы
Вы не можете отвечать на сообщения
Вы не можете редактировать свои сообщения
Вы не можете удалять свои сообщения
Вы не можете голосовать в опросах
Вы не можете прикреплять файлы к сообщениям
Вы не можете скачивать файлы