Таможня дает добро / Rien à déclarer (Дэни Бун) [2010 г., Комедия, HDRip]

Ответить на тему
 

Mr_ALo ®

Стаж: 7 лет 8 месяцев

Сообщений: 367

Симпатии: 20

Таможня дает добро / Rien à déclarer Год выпуска: 2010
Страна: Франция
Жанр: Комедия
Продолжительность: 01:48:18
Перевод: Дублированный [Лицензия]
Режиссер: Дэни Бун
В ролях: Бенуа Пульворд, Дэни Бун, Джули Бернард, Карин Виар, Франсуа Дамиенс, Боли Ланнерс, Оливье Гурме, Мишель Вюйермоз, Christel Pedrinelli, Joachim Ledeganck
Описание: История двух недотеп-таможенников, француза и бельгийца. Не испытывая особой приязни друг к другу, они, тем не менее, вынуждены стать напарниками и принимать участие в рискованной операции…
IMDb: 6.20 (1 564)
КиноПоиск: 7.254 (1 539)
слоган      «Бельгийские вафли vs. лягушачьи лапки»
Качество: HDRip - рип с BDRip 720p Источник
Формат: AVI
Видео: XviD 672x288 24.000 fps, 828 Kbps
Аудио: MP3 48.0 KHz 2 channel, 128 Kbps

MediaInfo

General
Complete name : I:\Films\Таможня дает добро 2010 HDRip.avi
Format : AVI
Format/Info : Audio Video Interleave
File size : 748 MiB
Duration : 1h 48mn
Overall bit rate : 966 Kbps
Writing application : VirtualDubMod 1.5.10.3 | www.virtualdub-fr.org || (build 2550/release)
Writing library : VirtualDubMod build 2550/release
Video
ID : 0
Format : MPEG-4 Visual
Format profile : Advanced Simple@L5
Format settings, BVOP : 1
Format settings, QPel : No
Format settings, GMC : No warppoints
Format settings, Matrix : Custom
Codec ID : XVID
Codec ID/Hint : XviD
Duration : 1h 48mn
Bit rate : 828 Kbps
Width : 672 pixels
Height : 288 pixels
Display aspect ratio : 2.35:1
Frame rate : 24.000 fps
Color space : YUV
Chroma subsampling : 4:2:0
Bit depth : 8 bits
Scan type : Progressive
Compression mode : Lossy
Bits/(Pixel*Frame) : 0.178
Stream size : 642 MiB (86%)
Writing library : XviD 1.2.1 (UTC 2008-12-04)
Audio
ID : 1
Format : MPEG Audio
Format version : Version 1
Format profile : Layer 3
Codec ID : 55
Codec ID/Hint : MP3
Duration : 1h 48mn
Bit rate mode : Constant
Bit rate : 128 Kbps
Channel(s) : 2 channels
Sampling rate : 48.0 KHz
Compression mode : Lossy
Stream size : 99.2 MiB (13%)
Alignment : Aligned on interleaves
Interleave, duration : 42 ms (1.00 video frame)
Interleave, preload duration : 504 ms
Writing library : LAME3.98r
Encoding settings : -m s -V 4 -q 2 -lowpass 17 -b 128

Скриншоты



Создавать темы 23-Окт-2011 20:36

[Профиль]  [ЛС] 

Sinema_uz

Стаж: 6 лет 7 месяцев

Сообщений: 303

Симпатии: 4

ay az


Последний раз редактировалось: Sinema_uz (2011-10-23 21:34), всего редактировалось 1 раз

Создавать темы 23-Окт-2011 21:34

[Профиль]  [ЛС] 

дамир нико

Стаж: 6 лет 2 месяца

Сообщений: 43

Симпатии: 3

пожалуйста . дайте скачать

Создавать темы 14-Мар-2013 21:15

[Профиль]  [ЛС] 
Показать сообщения:    
Ответить на тему

Текущее время: 24-Авг 15:44

Часовой пояс: UTC + 5



Вы не можете начинать темы
Вы не можете отвечать на сообщения
Вы не можете редактировать свои сообщения
Вы не можете удалять свои сообщения
Вы не можете голосовать в опросах
Вы не можете прикреплять файлы к сообщениям
Вы не можете скачивать файлы