Обещать - не значит жениться / He's Just Not That Into You (Кен Куопис) [2009 г., Драма, Мелодрама, Комедия, HDRip]

Ответить на тему
 

Mr_ALo ®

Стаж: 7 лет 10 месяцев

Сообщений: 367

Симпатии: 20

Обещать - не значит жениться / He's Just Not That Into You Год выпуска: 2009
Страна: США, Германия, Нидерланды
Жанр: Драма, Мелодрама, Комедия
Продолжительность: 02:09:21
Перевод: Дублированный [Лицензия]
Режиссер: Кен Куопис
В ролях: Скарлетт Йоханссон, Дженнифер Коннелли, Брэдли Купер, Джастин Лонг, Бен Аффлек, Дженнифер Энистон, Дрю Бэрримор, Крис Кристофферсон, Морган Лили, Трентон Роджерс
Описание: Фильм, события которого разворачиваются в Балтиморе, повествует о непростых отношениях мужчины и женщины, которые не всегда верно истолковывают намерения друг друга. Привлекательный мужчина не спешит расстаться со своим статусом холостяка, чем вызывает бурную реакцию своей влюбленной подружки.
IMDb: 6.40 (46 644)
КиноПоиск: 7.128 (19 921)
слоган      «Are you the exception...or the rule?»
Качество: HDRip - рип с BDRip 1080p Источник
Формат: AVI
Видео: XviD 688x288 23.976 fps, 711 Kbps
Аудио: MP3 48.0 KHz 2 channel, 128 Kbps

MediaInfo

General
Complete name : I:\Films\Обещать - не значит жениться 2009 HDRip.avi
Format : AVI
Format/Info : Audio Video Interleave
File size : 785 MiB
Duration : 2h 9mn
Overall bit rate : 848 Kbps
Writing application : VirtualDubMod 1.5.10.2 (build 2540/release)
Writing library : VirtualDubMod build 2540/release
Video
ID : 0
Format : MPEG-4 Visual
Format profile : Advanced [email protected]
Format settings, BVOP : 1
Format settings, QPel : No
Format settings, GMC : No warppoints
Format settings, Matrix : Custom
Codec ID : XVID
Codec ID/Hint : XviD
Duration : 2h 9mn
Bit rate : 711 Kbps
Width : 688 pixels
Height : 288 pixels
Display aspect ratio : 2.40:1
Frame rate : 23.976 fps
Color space : YUV
Chroma subsampling : 4:2:0
Bit depth : 8 bits
Scan type : Progressive
Compression mode : Lossy
Bits/(Pixel*Frame) : 0.150
Stream size : 658 MiB (84%)
Writing library : XviD 1.2.1 (UTC 2008-12-04)
Audio
ID : 1
Format : MPEG Audio
Format version : Version 1
Format profile : Layer 3
Codec ID : 55
Codec ID/Hint : MP3
Duration : 2h 9mn
Bit rate mode : Constant
Bit rate : 128 Kbps
Channel(s) : 2 channels
Sampling rate : 48.0 KHz
Compression mode : Lossy
Stream size : 118 MiB (15%)
Alignment : Aligned on interleaves
Interleave, duration : 42 ms (1.00 video frame)
Interleave, preload duration : 504 ms
Writing library : LAME3.97
Encoding settings : -m s -V 4 -q 2 -lowpass 17 -b 128

Скриншоты



Создавать темы 23-Окт-2011 21:31

[Профиль]  [ЛС] 

seeker

Стаж: 5 лет 9 месяцев

Сообщений: 2

Дайте скорость

Создавать темы 12-Мар-2012 21:06

[Профиль]  [ЛС] 

amane_neko

Стаж: 5 лет 6 месяцев

Сообщений: 2

дайте раздачу плиззз

Создавать темы 26-Дек-2012 17:42

[Профиль]  [ЛС] 

Евгения Белухина

Стаж: 5 лет 7 месяцев

Сообщений: 13

Приятный фильм с юмором и реальными обстоятельствами плюс хороший актерский состав! Рекомендую к просмотру!

Создавать темы 20-Май-2013 16:22

[Профиль]  [ЛС] 

uzbboy

Стаж: 5 лет 5 месяцев

Сообщений: 6

dayte skorost pliiz

Создавать темы 25-Фев-2014 21:34

[Профиль]  [ЛС] 

J7BEST

Стаж: 3 года 11 месяцев

Сообщений: 17

Симпатии: 2

дайте скорость плизз илтимооссссссс((((

Создавать темы 30-Июн-2014 20:11

[Профиль]  [ЛС] 
Показать сообщения:    
Ответить на тему

Текущее время: 18-Окт 14:03

Часовой пояс: UTC + 5



Вы не можете начинать темы
Вы не можете отвечать на сообщения
Вы не можете редактировать свои сообщения
Вы не можете удалять свои сообщения
Вы не можете голосовать в опросах
Вы не можете прикреплять файлы к сообщениям
Вы не можете скачивать файлы