Трансформеры 3: Тёмная сторона Луны / Transformers: Dark of the Moon (Майкл Бэй) [2011 г., Фантастика, Боевик, Приключения, BDRip]

Ответить на тему
 

Mr_ALo ®

Стаж: 7 лет 8 месяцев

Сообщений: 367

Симпатии: 20

Трансформеры 3: Тёмная сторона Луны / Transformers: Dark of the Moon Год выпуска: 2011
Страна: США
Жанр: Фантастика, Боевик, Приключения
Продолжительность: 02:34:21
Перевод: Дублированный [Лицензия]
Режиссер: Майкл Бэй
В ролях: Шайа ЛаБаф, Джош Дюамель, Джон Туртурро, Тайриз Гибсон, Роузи Хантингтон-Уайтли, Патрик Демпси, Кевин Данн, Джули Уайт, Джон Малкович, Питер Каллен
Описание: Для наших героев наступили печальные будни: Сэм потерял Микаэлу, правительство выпускает законодательный акт о выселении Автоботов с Земли, а пока Мегатрон скрывается после позорного поражения Фоллена, десептикон Шокуэйв, правитель Кибертрона, готовится нанести визит нашей планете с совсем недобрыми намерениями. Действие заключительной части трилогии на этот раз охватит не только Землю, но и Луну, темная сторона которой хранит не менее темные тайны.- -слоган      «Последний шанс цивилизации»
Качество: BDRip - рип с BDRip 1080p (Исх. Transformers Dark Of The Moon 2011 Blu-Ray 1080p AVC TrueHD-HDChina)
Формат: AVI
Видео: XviD 624x256 23.976 fps, 701 Kbps
Аудио: MP3 48.0 KHz 2 channel, 128 Kbps

MediaInfo

General
Complete name : I:\Films\Трансформеры 3 Темная сторона Луны 2011 BDRip.avi
Format : AVI
Format/Info : Audio Video Interleave
File size : 925 MiB
Duration : 2h 34mn
Overall bit rate : 838 Kbps
Writing application : VirtualDubMod 1.5.10.2 (build 2540/release)
Writing library : VirtualDubMod build 2540/release
Video
ID : 0
Format : MPEG-4 Visual
Format profile : Advanced [email protected]
Format settings, BVOP : 1
Format settings, QPel : No
Format settings, GMC : No warppoints
Format settings, Matrix : Custom
Codec ID : XVID
Codec ID/Hint : XviD
Duration : 2h 34mn
Bit rate : 701 Kbps
Width : 624 pixels
Height : 256 pixels
Display aspect ratio : 2.40:1
Frame rate : 23.976 fps
Color space : YUV
Chroma subsampling : 4:2:0
Bit depth : 8 bits
Scan type : Progressive
Compression mode : Lossy
Bits/(Pixel*Frame) : 0.183
Stream size : 774 MiB (84%)
Writing library : XviD 1.2.1 (UTC 2008-12-04)
Audio
ID : 1
Format : MPEG Audio
Format version : Version 1
Format profile : Layer 3
Codec ID : 55
Codec ID/Hint : MP3
Duration : 2h 34mn
Bit rate mode : Constant
Bit rate : 128 Kbps
Channel(s) : 2 channels
Sampling rate : 48.0 KHz
Compression mode : Lossy
Stream size : 141 MiB (15%)
Alignment : Aligned on interleaves
Interleave, duration : 42 ms (1.00 video frame)
Interleave, preload duration : 504 ms
Writing library : LAME3.97
Encoding settings : -m s -V 4 -q 2 -lowpass 17 -b 128

Скриншоты





Последний раз редактировалось: Mr_ALo (2012-01-23 21:50), всего редактировалось 1 раз

Создавать темы 24-Окт-2011 13:12

[Профиль]  [ЛС] 

sergonius

Стаж: 6 лет 9 месяцев

Сообщений: 37

а что с размером, почему маленький такой?

Создавать темы 24-Окт-2011 17:22

[Профиль]  [ЛС] 

Di.fm

Стаж: 6 лет 4 месяца

Сообщений: 4

Супер!

Создавать темы 24-Окт-2011 17:27

[Профиль]  [ЛС] 

x6

Стаж: 6 лет 6 месяцев

Сообщений: 171

Симпатии: 3

а что с размером, почему маленький такой?
поэтому
Видео: XviD 624x256 23.976 fps, 701 Kbps
Аудио: MP3 48.0 KHz 2 channel, 128 Kbps

_________________
Подпись отключена за нарушение правил форума

Создавать темы 24-Окт-2011 17:41

[Профиль]  [ЛС] 

SAfiN

Стаж: 5 лет 7 месяцев

Сообщений: 12

скорости не хватает

Создавать темы 18-Фев-2012 15:29

[Профиль]  [ЛС] 

Vohaha

Стаж: 5 лет 7 месяцев

Сообщений: 62

Симпатии: 11

Айдос, ты ещё спроси как смотреть!

Создавать темы 13-Май-2012 03:27

[Профиль]  [ЛС] 

Nodir74

Стаж: 5 лет 6 месяцев

Сообщений: 17

skriin ?!?!

Создавать темы 20-Мар-2014 14:25

[Профиль]  [ЛС] 
Показать сообщения:    
Ответить на тему

Текущее время: 21-Авг 13:30

Часовой пояс: UTC + 5



Вы не можете начинать темы
Вы не можете отвечать на сообщения
Вы не можете редактировать свои сообщения
Вы не можете удалять свои сообщения
Вы не можете голосовать в опросах
Вы не можете прикреплять файлы к сообщениям
Вы не можете скачивать файлы