Секса круглый ноль (1-2) / Saekjeukshigong Sijeun (Сионг-хо Юн) [2002-2007 г., Комедия, драма, DVDRip]

Страницы :  1, 2, 3  След.

Ответить на тему
 

lordblack ®

Стаж: 6 лет 5 месяцев

Сообщений: 44

Симпатии: 4

Секса круглый ноль (1-2) / Saekjeukshigong Sijeun
Постер:
Год выпуска: 2007
Страна: Южная Корея
Жанр: ag Комедия, aw драма
Продолжительность: 113 минут
Перевод: Профессиональный (многоголосый, закадровый)
Режиссер: Сионг-хо Юн
В ролях: Чанг Юнг Лим, Ий-Хуо Сонг и другие
Описание: Продолжение первой части в духе "Американского пирога" в корейском антураже. Персонажи из первой части вернулись!!! Картина рассказывает про то, что же все таки важнее в этот нелегкий возраст для молодежи, как выходит на первом плане у них стоит, что бы вы подумали, конечно же ...

Медиа инфо

Video
ID : 0
Format : MPEG-4 Visual
Codec ID : DIV3
Codec ID/Hint : DivX 3 Low
Duration : 1h 36mn
Bit rate : 885 Kbps
Width : 576 pixels
Height : 320 pixels
Display aspect ratio : 16:9
Frame rate : 23.976 fps
Color space : YUV
Chroma subsampling : 4:2:0
Bit depth : 8 bits
Compression mode : Lossy
Bits/(Pixel*Frame) : 0.200
Stream size : 612 MiB (87%)
Audio
ID : 1
Format : MPEG Audio
Format version : Version 1
Format profile : Layer 3
Mode : Joint stereo
Mode extension : MS Stereo
Codec ID : 55
Codec ID/Hint : MP3
Duration : 1h 36mn
Bit rate mode : Constant
Bit rate : 128 Kbps
Channel(s) : 2 channels
Sampling rate : 48.0 KHz
Compression mode : Lossy
Stream size : 88.6 MiB (13%)
Alignment : Aligned on interleaves
Interleave, duration : 808 ms (19.38 video frames)
Interleave, preload duration : 216 ms
Title : Mixdown
Качество: DVDRip
Формат: AVI
Видео кодек: DivX
Аудио кодек: MP3
Видео: 576х320 pixels, 23.976 fps, DivX 3 Low, Bit rate: 885 Kbps
Аудио: 128 Kbps~2 channels, 48.0 KHz

Скриншоты 1-серии



Скриншоты 2-серии


Оцените фильм не забудте сказать спасибо!


Последний раз редактировалось: lordblack (2011-12-03 21:25), всего редактировалось 5 раз(а)

Создавать темы 24-Окт-2011 21:21

[Профиль]  [ЛС] 

mina

Стаж: 6 лет 5 месяцев

Сообщений: 64

Симпатии: 1

ay Cпасибочки!
Я первую часть видела очень прикольный фильм!!!

Создавать темы 24-Окт-2011 23:11

[Профиль]  [ЛС] 

lordblack ®

Стаж: 6 лет 5 месяцев

Сообщений: 44

Симпатии: 4

привет фильм супер, я на раздаче, модери плз проверти!

Создавать темы 25-Окт-2011 09:03

[Профиль]  [ЛС] 

bestmaster

Стаж: 6 лет 5 месяцев

Сообщений: 11

скорост прибавте плз ауууууууу

Создавать темы 29-Окт-2011 15:50

[Профиль]  [ЛС] 

mina

Стаж: 6 лет 5 месяцев

Сообщений: 64

Симпатии: 1

3-4 части есть или нет таких серии?
Спасибо..

Создавать темы 03-Ноя-2011 14:55

[Профиль]  [ЛС] 

Lizard

Стаж: 6 лет 2 месяца

Сообщений: 21

mina
нет

Создавать темы 03-Ноя-2011 15:09

[Профиль]  [ЛС] 

lordblack ®

Стаж: 6 лет 5 месяцев

Сообщений: 44

Симпатии: 4

mina
нет 3 част не дотянулись!! ag ag ag

Создавать темы 06-Ноя-2011 14:41

[Профиль]  [ЛС] 

victor0778

Стаж: 6 лет 7 месяцев

Сообщений: 1670

Симпатии: 142

Видео битрейт добавь

Создавать темы 03-Янв-2012 13:48

[Профиль]  [ЛС] 

Топик был перенесен из форума Зарубежное кино в форум Азиатские фильмы


victor0778

Создавать темы 12-Янв-2012 11:00

 

bestmaster

Стаж: 6 лет 5 месяцев

Сообщений: 11

лучше на было на азиатские сериалы добавит !!!

Создавать темы 27-Янв-2012 09:02

[Профиль]  [ЛС] 

mina

Стаж: 6 лет 5 месяцев

Сообщений: 64

Симпатии: 1

после этого кино чупа чупса не хочется!!

Создавать темы 21-Мар-2012 22:31

[Профиль]  [ЛС] 

Uzel

Стаж: 6 лет 5 месяцев

Сообщений: 923

Симпатии: 53

Фильм прикольный неудачники вдувальщики)))

Создавать темы 16-Апр-2012 16:10

[Профиль]  [ЛС] 

TheDead

Стаж: 7 лет 1 месяц

Сообщений: 80

Симпатии: 2

Классный фильм

Создавать темы 22-Апр-2012 11:22

[Профиль]  [ЛС] 

juraev_aa

Стаж: 5 лет 5 месяцев

Сообщений: 1

speed please. thanks

Создавать темы 12-Май-2012 19:52

[Профиль]  [ЛС] 

XGT_VIP

Стаж: 5 лет 4 месяца

Сообщений: 1

super

Создавать темы 13-Май-2012 23:12

[Профиль]  [ЛС] 
Показать сообщения:    
Ответить на тему

Текущее время: 22-Сен 06:04

Часовой пояс: UTC + 5



Вы не можете начинать темы
Вы не можете отвечать на сообщения
Вы не можете редактировать свои сообщения
Вы не можете удалять свои сообщения
Вы не можете голосовать в опросах
Вы не можете прикреплять файлы к сообщениям
Вы не можете скачивать файлы