Гарри Поттер и Дары смерти: Часть II / Harry Potter and the Deathly Hallows: Part 2 (Дэвид Йэтс) [2011 г., Фэнтези, драма, приключения, BDRip-1080p]

Страницы :  1, 2, 3  След.

Ответить на тему
 

ziyod ®

Стаж: 7 лет 7 месяцев

Сообщений: 367

Симпатии: 60

Гарри Поттер и Дары смерти: Часть II
Harry Potter and the Deathly Hallows: Part 2

«Все закончится»- -Информация о фильме:
Год выпуска: 2011
Страна: США, Великобритания
Жанр: Фэнтези, драма, приключения
Продолжительность: 02:10:26
Перевод: Профессиональный (полное дублирование) [лицензия]
Режиссер: Дэвид Йэтс-В ролях: Дэниэл Рэдклифф, Руперт Гринт, Эмма Уотсон, Рэйф Файнс, Алан Рикман, Хелена Бонем Картер, Том Фелтон, Гари Олдман, Майкл Гэмбон, Мэгги Смит, Мэттью Льюис, Эванна Линч, Уорвик Дэвис, Джейсон Айзекс, Бонни Райт, Дэвид Тьюлис, Джули Уолтерс-Описание: В грандиозной последней главе битва между добрыми и злыми силами мира волшебников перерастает во всеобщую войну. Ставки ещё никогда не были так высоки, а поиск убежища — столь сложен. И быть может именно Гарри Поттеру придется пожертвовать всем в финальном сражении с Волан-де-Мортом. Способен ли наш герой спасти мир? И всё закончится здесь.

Рейтинг:
imdb // kinopoisk-Файл:
Качество: BDRip-1080p
Формат: MKV
Видео кодек: H.26x
Видео: MPEG-4 / 1920x800 (2.40:1) / 23.976 fps / ~10,5 Мbps
Аудио 1: Русский, AC-3 / 48 kHz / 6 ch / 384 kbps
Аудио 2: Английский, DTS / 48 kHz / 6 ch / 1536 kbps
-

Mediainfo

General
Unique ID                                : 187378729684946816241145890039475546854 (0x8CF7D4A5184A7F72B16B3A6B10592AE6)
Complete name                            : Garri.Potter.i.dary.smerti.Chast.2.2011.x264.BDRip(1080p).mkv
Format                                   : Matroska
Format version                           : Version 2
File size                                : 11.3 GiB
Duration                                 : 2h 10mn
Overall bit rate                         : 12.4 Mbps
Movie name                               : --SCHUMAHER--
Encoded date                             : UTC 2011-10-26 13:21:18
Writing application                      : mkvmerge v5.0.1 ('Es ist Sommer') built on Oct  9 2011 11:55:43
Writing library                          : libebml v1.2.2 + libmatroska v1.3.0
Video
ID                                       : 1
Format                                   : AVC
Format/Info                              : Advanced Video Codec
Format profile                           : [email protected]
Format settings, CABAC                   : Yes
Format settings, ReFrames                : 5 frames
Codec ID                                 : V_MPEG4/ISO/AVC
Duration                                 : 2h 10mn
Bit rate                                 : 10.5 Mbps
Width                                    : 1 920 pixels
Height                                   : 800 pixels
Display aspect ratio                     : 2.40:1
Frame rate                               : 23.976 fps
Color space                              : YUV
Chroma subsampling                       : 4:2:0
Bit depth                                : 8 bits
Scan type                                : Progressive
Bits/(Pixel*Frame)                       : 0.285
Stream size                              : 9.34 GiB (83%)
Writing library                          : x264 core 119 r2106 07efeb4
Encoding settings                        : cabac=1 / ref=5 / deblock=1:0:0 / analyse=0x3:0x133 / me=umh / subme=7 / psy=1 / psy_rd=1.00:0.00 / mixed_ref=1 / me_range=16 / chroma_me=1 / trellis=1 / 8x8dct=1 / cqm=0 / deadzone=21,11 / fast_pskip=0 / chroma_qp_offset=-2 / threads=12 / sliced_threads=0 / nr=0 / decimate=1 / interlaced=0 / bluray_compat=0 / constrained_intra=0 / bframes=3 / b_pyramid=2 / b_adapt=2 / b_bias=0 / direct=3 / weightb=1 / open_gop=0 / weightp=2 / keyint=250 / keyint_min=23 / scenecut=40 / intra_refresh=0 / rc_lookahead=50 / rc=2pass / mbtree=1 / bitrate=10491 / ratetol=1.0 / qcomp=0.60 / qpmin=0 / qpmax=69 / qpstep=4 / cplxblur=20.0 / qblur=0.5 / ip_ratio=1.40 / aq=1:1.00
Language                                 : English
Audio #1
ID                                       : 2
Format                                   : AC-3
Format/Info                              : Audio Coding 3
Mode extension                           : CM (complete main)
Codec ID                                 : A_AC3
Duration                                 : 2h 10mn
Bit rate mode                            : Constant
Bit rate                                 : 384 Kbps
Channel(s)                               : 6 channels
Channel positions                        : Front: L C R, Side: L R, LFE
Sampling rate                            : 48.0 KHz
Bit depth                                : 16 bits
Compression mode                         : Lossy
Stream size                              : 358 MiB (3%)
Language                                 : Russian
Audio #2
ID                                       : 3
Format                                   : DTS
Format/Info                              : Digital Theater Systems
Codec ID                                 : A_DTS
Duration                                 : 2h 10mn
Bit rate mode                            : Constant
Bit rate                                 : 1 510 Kbps
Channel(s)                               : 6 channels
Channel positions                        : Front: L C R, Side: L R, LFE
Sampling rate                            : 48.0 KHz
Bit depth                                : 24 bits
Compression mode                         : Lossy
Stream size                              : 1.38 GiB (12%)
Language                                 : English
Text #1
ID                                       : 4
Format                                   : UTF-8
Codec ID                                 : S_TEXT/UTF8
Codec ID/Info                            : UTF-8 Plain Text
Language                                 : Russian
Text #2
ID                                       : 5
Format                                   : UTF-8
Codec ID                                 : S_TEXT/UTF8
Codec ID/Info                            : UTF-8 Plain Text
Language                                 : English
-

Скриншоты





Последний раз редактировалось: ziyod (2012-01-04 07:02), всего редактировалось 2 раз(а)

Создавать темы 02-Ноя-2011 07:16

[Профиль]  [ЛС] 

MARVEL-S

Стаж: 6 лет 1 месяц

Сообщений: 139

Симпатии: 9

о хо крутяк спасибо ay az

Создавать темы 02-Ноя-2011 09:22

[Профиль]  [ЛС] 

Vika89

Стаж: 6 лет 3 месяца

Сообщений: 90

Симпатии: 3

ziyod, спасибо за релиз

Создавать темы 02-Ноя-2011 09:57

[Профиль]  [ЛС] 

DMiTRY

Стаж: 6 лет 5 месяцев

Сообщений: 649

Симпатии: 28

спасибо,будем качать:)

Создавать темы 02-Ноя-2011 15:13

[Профиль]  [ЛС] 

predator237

Стаж: 6 лет 6 месяцев

Сообщений: 23

Симпатии: 2

Сид вернись на раздачу)))

Создавать темы 02-Ноя-2011 16:12

[Профиль]  [ЛС] 

x6

Стаж: 6 лет 8 месяцев

Сообщений: 171

Симпатии: 3

золото работает? то что скачал уже не учитываеся?

_________________
Подпись отключена за нарушение правил форума

Создавать темы 04-Ноя-2011 11:40

[Профиль]  [ЛС] 

hildeN

Стаж: 6 лет 8 месяцев

Сообщений: 59

Симпатии: 2

прибавьте немножко скорости !!! az ar zd

Создавать темы 05-Ноя-2011 18:04

[Профиль]  [ЛС] 

KuZmA

Стаж: 6 лет 9 месяцев

Сообщений: 12

Вот я тоже встал , качайте )))

Создавать темы 06-Ноя-2011 07:47

[Профиль]  [ЛС] 

DMiTRY

Стаж: 6 лет 5 месяцев

Сообщений: 649

Симпатии: 28

дайте скорости плс....

Создавать темы 06-Ноя-2011 09:06

[Профиль]  [ЛС] 

x6

Стаж: 6 лет 8 месяцев

Сообщений: 171

Симпатии: 3

то что скачал не учитывается ?или до сих пор глюк?

_________________
Подпись отключена за нарушение правил форума

Создавать темы 09-Ноя-2011 10:54

[Профиль]  [ЛС] 

yuragreek

Стаж: 6 лет 8 месяцев

Сообщений: 125

Симпатии: 3

Народ!!! Звук И Вправду Лицензия??? ab

Создавать темы 21-Ноя-2011 14:59

[Профиль]  [ЛС] 

Anvar_7979

Стаж: 6 лет 5 месяцев

Сообщений: 8

ok ay

Создавать темы 27-Ноя-2011 20:44

[Профиль]  [ЛС] 

Sango

Стаж: 6 лет 5 месяцев

Сообщений: 6

Фильм супер пупер класный спасибо огомное и вчасносте за качество и разрешение 1920x800 .

Создавать темы 11-Дек-2011 10:35

[Профиль]  [ЛС] 

theguk

Стаж: 6 лет 10 месяцев

Сообщений: 1

Крутой фильм и качество супер! Вот только в некоторых местах теряется синхронизация аудио с видео... Пробовал множество плееров, кто то даже не открывает совсем этот фильм... Хотя установлен "MatroskaSplitter" кодек для формата MKV. Видимо ошибки при конвертировании были?! ziyod?

Создавать темы 15-Дек-2011 20:52

[Профиль]  [ЛС] 

werewolf666

Стаж: 6 лет 9 месяцев

Сообщений: 13

Симпатии: 1

сорри что не в тему, есть у кого нибудь этот же фильм тока в 3D??

Создавать темы 24-Дек-2011 12:43

[Профиль]  [ЛС] 
Показать сообщения:    
Ответить на тему

Текущее время: 22-Окт 13:28

Часовой пояс: UTC + 5



Вы не можете начинать темы
Вы не можете отвечать на сообщения
Вы не можете редактировать свои сообщения
Вы не можете удалять свои сообщения
Вы не можете голосовать в опросах
Вы не можете прикреплять файлы к сообщениям
Вы не можете скачивать файлы