Армагеддон / Armageddon (Майкл Бэй) [1998 г., фантастика, боевик, триллер, приключения, BDRip 720p] DUB+MVO+Original, sub RUS, ENG

Страницы :  1, 2  След.

Ответить на тему
 

jamoljan ®

Стаж: 6 лет 10 месяцев

Сообщений: 21

Симпатии: 1

Армагеддон / Armageddon
Год выпуска: 1998
Страна: США
Жанр: фантастика, боевик, триллер, приключения
Продолжительность: 150 мин.
Перевод: Профессиональный (полное дублирование)
Субтитры: есть (2 вида)
Режиссер: Майкл Бэй
В ролях: В главных ролях:
Брюс Уиллис, Бен Аффлек, Лив Тайлер, Уилл Пэттон, Билли Боб Торнтон
Стив Бушеми, Уильям Фихтнер, Оуэн Уилсон, Майкл Кларк Дункан, Петер Стормаре
Описание: Тень гигантского астероида легла на Землю. До рокового столкновения остаются считанные дни. Наступает Армагеддон, трагический финал мировой истории. Чтобы предотвратить катастрофу, необходимо чудо — или совместные усилия лучших из лучших вместе с технологической мощью всего созданного человеком. Сможет ли горстка людей противостоять вселенской стихии?..
Доп. информация:

MediaInfo

General
Complete name :Armageddon.1998.BDRip_720p_www.9i9i9.net.mkv
Format : Matroska
File size : 10.4 GiB
Duration : 2h 30mn
Overall bit rate : 9 824 Kbps
Encoded date : UTC 2010-04-20 22:12:45
Writing application : mkvmerge v3.3.0 ('Language') built on Mar 24 2010 14:59:24
Writing library : libebml v0.8.0 + libmatroska v0.9.0
Video #1
ID : 1
Format : AVC
Format/Info : Advanced Video Codec
Format profile : [email protected]
Format settings, CABAC : Yes
Format settings, ReFrames : 12 frames
Muxing mode : Container [email protected]
Codec ID : V_MPEG4/ISO/AVC
Duration : 2h 30mn
Bit rate : 6 161 Kbps
Nominal bit rate : 6 356 Kbps
Width : 1 280 pixels
Height : 534 pixels
Display aspect ratio : 2.35:1
Frame rate : 23.976 fps
Resolution : 24 bits
Colorimetry : 4:2:0
Scan type : Progressive
Bits/(Pixel*Frame) : 0.376
Stream size : 6.48 GiB (63%)
Title : Armageddon.1998.Bluray.720p.DTS.2Audio.x264-CHD
Writing library : x264 core 93 r1538 bd72d46
Encoding settings : cabac=1 / ref=12 / deblock=1:-3:-3 / analyse=0x3:0x113 / me=umh / subme=10 / psy=1 / psy_rd=1.10:0.10 / mixed_ref=1 / me_range=32 / chroma_me=1 / trellis=2 / 8x8dct=1 / cqm=2 / deadzone=21,11 / fast_pskip=0 / chroma_qp_offset=-3 / threads=6 / sliced_threads=0 / nr=0 / decimate=0 / interlaced=0 / constrained_intra=0 / bframes=3 / b_pyramid=2 / b_adapt=2 / b_bias=0 / direct=3 / wpredb=1 / wpredp=2 / keyint=120 / keyint_min=12 / scenecut=40 / intra_refresh=0 / rc_lookahead=40 / rc=2pass / mbtree=1 / bitrate=6356 / ratetol=2.0 / qcomp=0.70 / qpmin=10 / qpmax=51 / qpstep=4 / cplxblur=20.0 / qblur=0.5 / vbv_maxrate=50000 / vbv_bufsize=50000 / ip_ratio=1.40 / aq=2:1.00 / zones=209000,216400,b=0.4 / nal_hrd=none
Language : English
Audio #2
ID : 2
Format : AC-3
Format/Info : Audio Coding 3
Codec ID : A_AC3
Duration : 2h 30mn
Bit rate mode : Constant
Bit rate : 448 Kbps
Channel(s) : 6 channels
Channel positions : Front: L C R, Surround: L R, LFE
Sampling rate : 48.0 KHz
Stream size : 483 MiB (5%)
Title : Dub AC3 5.1 @ 448 kbps [NTV+]
Language : Russian
Audio #3
ID : 3
Format : DTS
Format/Info : Digital Theater Systems
Codec ID : A_DTS
Duration : 2h 30mn
Bit rate mode : Constant
Bit rate : 1 510 Kbps
Channel(s) : 6 channels
Channel positions : Front: L C R, Surround: L R, LFE
Sampling rate : 48.0 KHz
Resolution : 24 bits
Stream size : 1.59 GiB (15%)
Title : MVO DTS 5.1 @ 1536 kbps [Superbit]
Language : Russian
Audio #4
ID : 4
Format : DTS
Format/Info : Digital Theater Systems
Codec ID : A_DTS
Duration : 2h 30mn
Bit rate mode : Constant
Bit rate : 1 510 Kbps
Channel(s) : 6 channels
Channel positions : Front: L C R, Surround: L R, LFE
Sampling rate : 48.0 KHz
Resolution : 24 bits
Stream size : 1.59 GiB (15%)
Title : DTS 5.1 @ 1536 kbps
Language : English
Text #5
ID : 5
Format : UTF-8
Codec ID : S_TEXT/UTF8
Codec ID/Info : UTF-8 Plain Text
Language : Russian
Text #6
ID : 6
Format : UTF-8
Codec ID : S_TEXT/UTF8
Codec ID/Info : UTF-8 Plain Text
Language : English
Качество: BDRip
Формат: MKV
Видео кодек: x264
Аудио кодек: AC3, DTS
Видео: AVC, 1280x534 (2.4:1), 23.976fps, 6 161 Kbps, 0.376 bit/pixel
Аудио №1: Russian AC3, 48.0 KHz, 6ch, 448 Kbps (НТВ+)
Аудио №2: Russian DTS, 48.0 KHz, 6ch, 1 510 Kbps (СуперБит)
Аудио №3: English DTS, 48.0 KHz, 6ch, 1 510 Kbps
Субтитры: Русские, английские

Скриншоты





 

Создавать темы 03-Ноя-2011 11:03

[Профиль]  [ЛС] 

Honda

Стаж: 6 лет 10 месяцев

Сообщений: 93

Симпатии: 1

какой бы абсурдный фильм не был, все же он классный)

Создавать темы 03-Ноя-2011 11:31

[Профиль]  [ЛС] 

inviz

Стаж: 5 лет 10 месяцев

Сообщений: 153

Симпатии: 6

+1 всё скачиваю ))) (Мне этот фильм понравился помню на диал апе скачивал когда только вышел ) ab


Последний раз редактировалось: inviz (2011-11-05 02:11), всего редактировалось 1 раз

Создавать темы 03-Ноя-2011 11:54

[Профиль]  [ЛС] 

Pendalf

Стаж: 6 лет 3 месяца

Сообщений: 416

Симпатии: 34

MediaInfo под спойлер уберите

Создавать темы 03-Ноя-2011 15:17

[Профиль]  [ЛС] 

inviz

Стаж: 5 лет 10 месяцев

Сообщений: 153

Симпатии: 6

Релизер дай скорости! ab

Создавать темы 05-Ноя-2011 02:12

[Профиль]  [ЛС] 

alexprogr

Стаж: 6 лет 8 месяцев

Сообщений: 72

Симпатии: 3

А че медиаинфо в спойлер спрятать никак?

Создавать темы 05-Ноя-2011 11:16

[Профиль]  [ЛС] 

sh.safarov

Стаж: 5 лет 9 месяцев

Сообщений: 30

Симпатии: 1

jamoljan стаж 1 год но релиз оформит не умееш

Создавать темы 25-Дек-2011 17:41

[Профиль]  [ЛС] 

azizx

Стаж: 6 лет 4 месяца

Сообщений: 20

имей совесть дай раздачу

Создавать темы 01-Янв-2012 11:21

[Профиль]  [ЛС] 

vega2515936

Стаж: 5 лет 8 месяцев

Сообщений: 2

СКОРОСТЬ! СКОРОСТь!! СКОРОСТЬ!!! ПОЖАЛУЙСТА

Создавать темы 10-Янв-2012 15:13

[Профиль]  [ЛС] 

satalamer

Стаж: 6 лет 4 месяца

Сообщений: 41

дай раздачу

Создавать темы 02-Фев-2012 20:25

[Профиль]  [ЛС] 

yuragreek

Стаж: 6 лет 7 месяцев

Сообщений: 125

Симпатии: 3

Ну И Где Автор??? Зарегистрирован: 3 месяца 17 дней | Скачан: 1 раз!!! Полного источника не было: 2 месяца 19 дней!!!

Создавать темы 20-Фев-2012 14:48

[Профиль]  [ЛС] 

satalamer

Стаж: 6 лет 4 месяца

Сообщений: 41

Автор Где ???

Создавать темы 23-Фев-2012 19:14

[Профиль]  [ЛС] 

satalamer

Стаж: 6 лет 4 месяца

Сообщений: 41

дай раздачу

Создавать темы 12-Апр-2012 18:04

[Профиль]  [ЛС] 

sarvinoz

Стаж: 5 лет 6 месяцев

Сообщений: 33

ребята без обид он просто для выпендрежа оформил раздачу и свалил не будет он раздавать

Создавать темы 12-Апр-2012 19:13

[Профиль]  [ЛС] 

janrok

Стаж: 5 лет 6 месяцев

Сообщений: 290

Симпатии: 27

здесь фильма нет так что http://tas-ix.net/viewtopic.php?t=46692&view=newest#newest вот вам Армагеддон

Создавать темы 10-Май-2012 07:02

[Профиль]  [ЛС] 
Показать сообщения:    
Ответить на тему

Текущее время: 19-Сен 16:45

Часовой пояс: UTC + 5



Вы не можете начинать темы
Вы не можете отвечать на сообщения
Вы не можете редактировать свои сообщения
Вы не можете удалять свои сообщения
Вы не можете голосовать в опросах
Вы не можете прикреплять файлы к сообщениям
Вы не можете скачивать файлы