Зеленый Фонарь 3D / Green Lantern 3D (Мартин Кэмпбелл) [2011 г., Фантастика, Приключения, Боевик, BDRip]

Ответить на тему
 

anviko ®

Стаж: 6 лет 7 месяцев

Сообщений: 84

Симпатии: 3

Зеленый Фонарь 3D / Green Lantern 3D Год выпуска: 2011
Страна: США
Жанр: Фантастика, Приключения, Боевик
Продолжительность: 01:54:00
Перевод: Профессиональный (полное дублирование)
Режиссер: Мартин Кэмпбелл
В ролях: Райан Рейнольдс, Блейк Лайвли, Питер Сарсгаард, Марк Стронг, Темуэра Моррисон, Дженна Крэйг, Джон Тенни, Майк Дойл, Гэтлин Гриффит, Николас Джендл
Описание: Во Вселенной, столь же бесконечной, сколь и загадочной, многие века существовал отряд воинов, обладающих огромной силой. Защитники мира и справедливости, их называют Корпус Зеленых Фонарей. Братство воинов, поклявшихся защищать межгалактический закон, где каждый из них носит кольцо, дарующее ему сверхспособности. Но когда новый враг по имени Параллакс угрожает нарушить равновесие во Вселенной, их судьба и судьба Земли оказывается в руках новобранца, первого человека в истории отряда — Хэла Джордана.
Хэл — дерзкий и талантливый летчик-испытатель, но Зеленые Фонари не испытывают доверия и уважения к человечеству, ведь людям до этого ни разу не удалось обуздать безграничную силу кольца. Но Хэл — как недостающий кусочек мозаики, и вместе с решимостью и силой воли он обладает тем, чего не было ни у одного звездного воителя, — человечностью. Если при поддержке напарника и подруги детства Кэрол Феррис (Блейк Лайвли) Хэл сможет быстро научиться управлять мощью кольца и найдет мужество преодолеть свои страхи, он сможет не только доказать, что он является ключом к победе над Параллаксом… но и станет величайшим Зеленым Фонарем из всех.
Доп. информация: Формат 3D: Анаглиф red-cyan (Дюбуа)
Качество: BDrip
Контейнер: MKV
Видео кодек: h.264
Аудио кодек: AC3
Видео: MPEG4 Video (H264) 1920x800 23.98fps 10.0 Mbps
Аудио: Русский / Дублированный, Dolby AC3 48000Hz 6ch

MI

General
Format : Matroska
File size : 8.47 GiB
Duration : 1h 54mn
Overall bit rate : 10.6 Mbps
Encoded date : UTC 2011-10-09 15:29:32
Writing application : mkvmerge v4.4.0 ('Die Wiederkehr') сборка от Oct 31 2010 21:52:48
Writing library : libebml v1.0.0 + libmatroska v1.0.0
Video
ID : 1
Format : AVC
Format/Info : Advanced Video Codec
Format profile : [email protected]
Format settings, CABAC : Yes
Format settings, ReFrames : 4 frames
Codec ID : V_MPEG4/ISO/AVC
Duration : 1h 54mn
Bit rate : 10.0 Mbps
Width : 1 920 pixels
Height : 800 pixels
Display aspect ratio : 2.40:1
Frame rate : 23.976 fps
Color space : YUV
Chroma subsampling : 4:2:0
Bit depth : 8 bits
Scan type : Progressive
Bits/(Pixel*Frame) : 0.273
Stream size : 8.00 GiB (94%)
Title : Anaglyph Dubois by Boss-Master
Writing library : x264 core 115 r1995 c1e60b9
Encoding settings : cabac=1 / ref=4 / deblock=1:-2:-2 / analyse=0x3:0x113 / me=umh / subme=9 / psy=1 / psy_rd=1.00:0.15 / mixed_ref=1 / me_range=16 / chroma_me=1 / trellis=2 / 8x8dct=1 / cqm=0 / deadzone=21,11 / fast_pskip=1 / chroma_qp_offset=-3 / threads=6 / sliced_threads=0 / nr=0 / decimate=1 / interlaced=0 / bluray_compat=0 / constrained_intra=0 / bframes=6 / b_pyramid=0 / b_adapt=2 / b_bias=0 / direct=3 / weightb=1 / open_gop=0 / weightp=2 / keyint=250 / keyint_min=23 / scenecut=40 / intra_refresh=0 / rc_lookahead=40 / rc=crf / mbtree=1 / crf=18.0 / qcomp=0.60 / qpmin=10 / qpmax=69 / qpstep=4 / ip_ratio=1.40 / aq=1:1.00
Audio
ID : 2
Format : AC-3
Format/Info : Audio Coding 3
Mode extension : CM (complete main)
Codec ID : A_AC3
Duration : 1h 54mn
Bit rate mode : Constant
Bit rate : 384 Kbps
Channel(s) : 6 channels
Channel positions : Front: L C R, Side: L R, LFE
Sampling rate : 48.0 KHz
Bit depth : 16 bits
Compression mode : Lossy
Stream size : 313 MiB (4%)

СКРИНШОТЫ






Последний раз редактировалось: anviko (2011-12-10 20:23), всего редактировалось 3 раз(а)

Создавать темы 07-Ноя-2011 14:21

[Профиль]  [ЛС] 

Топик был перенесен из форума 3D в форум Архив

anviko

Создавать темы 07-Ноя-2011 14:24

 

Топик был перенесен из форума Архив в форум 3D

anviko

Создавать темы 07-Ноя-2011 14:28

 

Уша

Стаж: 7 лет

Сообщений: 92

Симпатии: 1

спс за фильм то ты так долго раздаешь

Создавать темы 08-Ноя-2011 15:49

[Профиль]  [ЛС] 

Tolik4523

Стаж: 5 лет 7 месяцев

Сообщений: 271

Симпатии: 27

anviko, А как голосовать?

Создавать темы 20-Янв-2012 16:36

[Профиль]  [ЛС] 

anviko ®

Стаж: 6 лет 7 месяцев

Сообщений: 84

Симпатии: 3

anviko, А как голосовать?
уже как бы все. опрос был на месяц, вроде

Создавать темы 19-Фев-2012 20:29

[Профиль]  [ЛС] 

kan-1976

Стаж: 6 лет 10 месяцев

Сообщений: 6

дайте скорость плиз !!!!!!!!!!!!!!!!!!!!!!!!!!!!!!!!!!!!!!!!!!!!!!!!!!!!!!!!!!!!!!!!!!!!!!!!!!!!!!!!!!!!!!!!!!!

Создавать темы 23-Фев-2012 22:29

[Профиль]  [ЛС] 

poleglot

Стаж: 7 лет

Сообщений: 30

дайте скорость народ уже месяц наверное не могу скачать

Создавать темы 26-Фев-2012 08:56

[Профиль]  [ЛС] 

anviko ®

Стаж: 6 лет 7 месяцев

Сообщений: 84

Симпатии: 3

завтра встану на раздачу... тока берут- раздавать никто не хочет

Создавать темы 27-Фев-2012 12:07

[Профиль]  [ЛС] 

poleglot

Стаж: 7 лет

Сообщений: 30

я раздаю постоянно за счёт этого без б

Создавать темы 27-Фев-2012 15:59

[Профиль]  [ЛС] 

anviko ®

Стаж: 6 лет 7 месяцев

Сообщений: 84

Симпатии: 3

я раздаю постоянно за счёт этого без б
респект и уважуха

Создавать темы 27-Фев-2012 16:52

[Профиль]  [ЛС] 

vovik1

Стаж: 4 года 3 месяца

Сообщений: 49

Симпатии: 1

качаю

Создавать темы 01-Дек-2013 07:22

[Профиль]  [ЛС] 
Показать сообщения:    
Ответить на тему

Текущее время: 20-Авг 18:37

Часовой пояс: UTC + 5



Вы не можете начинать темы
Вы не можете отвечать на сообщения
Вы не можете редактировать свои сообщения
Вы не можете удалять свои сообщения
Вы не можете голосовать в опросах
Вы не можете прикреплять файлы к сообщениям
Вы не можете скачивать файлы