Главное - не бояться! / A Little Bit of Heaven (Николь Кэссел) [2011 г., Драма, Мелодрама, Комедия, HDRip]

Ответить на тему
 

Mr_ALo ®

Стаж: 7 лет 10 месяцев

Сообщений: 367

Симпатии: 20

Главное - не бояться! / A Little Bit of Heaven Год выпуска: 2011
Страна: США
Жанр: Драма, Мелодрама, Комедия
Продолжительность: 01:46:35
Перевод: Дублированный [Лицензия]
Режиссер: Николь Кэссел
В ролях: Кейт Хадсон, Гаэль Гарсия Берналь, Люси Панч, Розмари ДеУитт, Питер Динклэйдж, Кэти Бейтс, Вупи Голдберг, Йохан Урб, Трит Уильямс, Стивен Уэбер
Описание: Трагикомедия, рассказывающая о любовных отношениях между смертельно больной раком 30-летней красавицей и лечащим ее доктором-онкологом.
IMDb: 5.90 (2 011)
КиноПоиск: 6.836 (1 148)
слоган      «Держись за любовь»
Качество: HDRip - рип с BDRip 1080p
Формат: AVI
Видео: XviD 656x368 23.976 fps, 840 Kbps
Аудио: MP3 48.0 KHz 2 channel, 128 Kbps

MediaInfo

General
Complete name : I:\Films\Главное - не бояться 2011 HDRip.avi
Format : AVI
Format/Info : Audio Video Interleave
File size : 745 MiB
Duration : 1h 46mn
Overall bit rate : 977 Kbps
Writing application : VirtualDubModRus 1.5.10.2 (build 2542/release)
Writing library : VirtualDubMod build 2542/release
Video
ID : 0
Format : MPEG-4 Visual
Format profile : Advanced Simple@L5
Format settings, BVOP : 1
Format settings, QPel : No
Format settings, GMC : No warppoints
Format settings, Matrix : Custom
Codec ID : XVID
Codec ID/Hint : XviD
Duration : 1h 46mn
Bit rate : 840 Kbps
Width : 656 pixels
Height : 368 pixels
Display aspect ratio : 16:9
Frame rate : 23.976 fps
Color space : YUV
Chroma subsampling : 4:2:0
Bit depth : 8 bits
Scan type : Progressive
Compression mode : Lossy
Bits/(Pixel*Frame) : 0.145
Stream size : 640 MiB (86%)
Writing library : XviD 1.2.1 (UTC 2008-12-04)
Audio
ID : 1
Format : MPEG Audio
Format version : Version 1
Format profile : Layer 3
Mode : Joint stereo
Mode extension : MS Stereo
Codec ID : 55
Codec ID/Hint : MP3
Duration : 1h 46mn
Bit rate mode : Constant
Bit rate : 128 Kbps
Channel(s) : 2 channels
Sampling rate : 48.0 KHz
Compression mode : Lossy
Stream size : 97.6 MiB (13%)
Alignment : Aligned on interleaves
Interleave, duration : 42 ms (1.00 video frame)
Interleave, preload duration : 504 ms

Скриншоты



Создавать темы 11-Ноя-2011 09:42

[Профиль]  [ЛС] 

turk

Стаж: 6 лет 3 месяца

Сообщений: 9

745 мб это конечно мало для фильма но по скриншотам вроде бы всё норм!

Создавать темы 18-Ноя-2011 14:39

[Профиль]  [ЛС] 
Показать сообщения:    
Ответить на тему

Текущее время: 19-Окт 17:56

Часовой пояс: UTC + 5



Вы не можете начинать темы
Вы не можете отвечать на сообщения
Вы не можете редактировать свои сообщения
Вы не можете удалять свои сообщения
Вы не можете голосовать в опросах
Вы не можете прикреплять файлы к сообщениям
Вы не можете скачивать файлы