Пипец / Kick-Ass (Мэттью Вон) [2010., Боевик, Триллер, Комедия, Криминал, HDRip]

Ответить на тему
 

Mr_ALo ®

Стаж: 7 лет 11 месяцев

Сообщений: 367

Симпатии: 20

Пипец / Kick-Ass Год выпуска: 2010
Страна: США, Великобритания
Жанр: Боевик, Триллер, Комедия, Криминал
Продолжительность: 01:57:44
Перевод: Дублированный [Лицензия, без цензуры]
Режиссер: Мэттью Вон
В ролях: Аарон Джонсон, Хлоя Морец, Николас Кейдж, Марк Стронг, Кристофер Минц-Плассе, Линдси Фонсека, Джейсон Флеминг, Декстер Флетчер, Майкл Рисполи, Элизабет МакГоверн
Описание: Главный герой — школьник Дэйв Лизевски, который, вырядившись в костюм супергероя, пытается бороться с преступниками, хотя не обладает для этого никакими способностями. Параллельно два персонажа — 11-летняя девочка, которая крошит гангстеров мечом и сынок гангстера, ведущий собственное расследование, пытаются выяснить личность Дэйва…- -слоган      «Заткнись. Мочи.»
Качество: HDRip - рип с BDRip 1080p
Формат: AVI
Видео: XviD 688x288 23.976 fps, 746 Kbps
Аудио: MP3 48.0 KHz 2 channel, 128 Kbps

MediaInfo

General
Complete name : I:\Films\Пипец 2010 HDRip.avi
Format : AVI
Format/Info : Audio Video Interleave
File size : 744 MiB
Duration : 1h 57mn
Overall bit rate : 883 Kbps
Writing application : VirtualDubMod 1.5.10.2 (build 2540/release)
Writing library : VirtualDubMod build 2540/release
Video
ID : 0
Format : MPEG-4 Visual
Format profile : Advanced [email protected]
Format settings, BVOP : 1
Format settings, QPel : No
Format settings, GMC : No warppoints
Format settings, Matrix : Custom
Codec ID : XVID
Codec ID/Hint : XviD
Duration : 1h 57mn
Bit rate : 746 Kbps
Width : 688 pixels
Height : 288 pixels
Display aspect ratio : 2.40:1
Frame rate : 23.976 fps
Color space : YUV
Chroma subsampling : 4:2:0
Bit depth : 8 bits
Scan type : Progressive
Compression mode : Lossy
Bits/(Pixel*Frame) : 0.157
Stream size : 628 MiB (84%)
Writing library : XviD 1.2.1 (UTC 2008-12-04)
Audio
ID : 1
Format : MPEG Audio
Format version : Version 1
Format profile : Layer 3
Codec ID : 55
Codec ID/Hint : MP3
Duration : 1h 57mn
Bit rate mode : Constant
Bit rate : 128 Kbps
Channel(s) : 2 channels
Sampling rate : 48.0 KHz
Compression mode : Lossy
Stream size : 108 MiB (14%)
Alignment : Aligned on interleaves
Interleave, duration : 42 ms (1.00 video frame)
Interleave, preload duration : 504 ms
Writing library : LAME3.97
Encoding settings : -m s -V 4 -q 2 -lowpass 17 -b 128

Скриншоты





Последний раз редактировалось: Mr_ALo (2012-01-23 21:39), всего редактировалось 2 раз(а)

Создавать темы 17-Ноя-2011 10:44

[Профиль]  [ЛС] 

shohruh_0777

Стаж: 6 лет 10 месяцев

Сообщений: 41

Спасибо за релиз! Фильм супер, кто не смотрел, советую всем! Просто ржавчина!!!

Создавать темы 17-Ноя-2011 17:17

[Профиль]  [ЛС] 

dimanjon

Стаж: 5 лет 9 месяцев

Сообщений: 107

Симпатии: 9

дайте скорости плизз

Создавать темы 21-Янв-2012 22:49

[Профиль]  [ЛС] 

RedBull

Стаж: 6 лет 7 месяцев

Сообщений: 185

Симпатии: 4

Дайте газу :)

Создавать темы 21-Фев-2012 20:30

[Профиль]  [ЛС] 

dimanjon

Стаж: 5 лет 9 месяцев

Сообщений: 107

Симпатии: 9

Дайте скорости 6 % остался. После буду раздавать. Прибавте хотя бы на 20 минут.

Создавать темы 22-Фев-2012 16:48

[Профиль]  [ЛС] 

dimanjon

Стаж: 5 лет 9 месяцев

Сообщений: 107

Симпатии: 9

встал на раздачу

Создавать темы 22-Фев-2012 17:32

[Профиль]  [ЛС] 

Emigrate

Стаж: 5 лет 10 месяцев

Сообщений: 110

Симпатии: 1

скорости дайте

Создавать темы 15-Мар-2012 13:54

[Профиль]  [ЛС] 
Показать сообщения:    
Ответить на тему

Текущее время: 18-Ноя 09:50

Часовой пояс: UTC + 5



Вы не можете начинать темы
Вы не можете отвечать на сообщения
Вы не можете редактировать свои сообщения
Вы не можете удалять свои сообщения
Вы не можете голосовать в опросах
Вы не можете прикреплять файлы к сообщениям
Вы не можете скачивать файлы