Мальчишник 2: Из Вегаса в Бангкок / The Hangover Part II (Тодд Филлипс) [2011 г., Комедия, HDRip]

Ответить на тему
 

Mr_ALo ®

Стаж: 8 лет

Сообщений: 367

Симпатии: 20

Мальчишник 2: Из Вегаса в Бангкок / The Hangover Part II Год выпуска: 2011
Страна: США
Жанр: Комедия
Продолжительность: 01:41:48
Перевод: Профессиональный (дублированный)
Режиссер: Тодд Филлипс
В ролях: Брэдли Купер, Эд Хелмс, Зак Галифианакис, Джастин Барта, Кен Жонг, Пол Джаматти, Майк Тайсон, Джефри Тэмбор, Мэйсон Ли, Джеми Чунг
Описание: В продолжении культовой комедии «Мальчишник в Вегасе» четверо друзей Фил, Стю, Алан и Даг отправляются в экзотический Тайланд на свадьбу Стю. После безумного мальчишника в Лас-Вегасе, они решают не испытывать судьбу во второй раз, а потому в Бангкоке планируют очень спокойное и безопасное празднество. Но как обычно, все идет совсем не по плану… Что происходит в Вегасе, остается в Вегасе. Но то, что происходит в Бангкоке — это просто настоящее безумие!
IMDb: 6.80 (69 218)
КиноПоиск: 7.333 (22 281)
слоган      «Теперь их имеет Бангкок»
Качество: HDRip - рип с BDRip 1080p
Формат: AVI
Видео: XviD 688x288 23.976 fps, 882 Kbps
Аудио: MP3 48.0 KHz 2 channel, 128 Kbps

MediaInfo

General
Complete name : I:\Films\Мальчишник 2 Из Вегаса в Бангкок 2011 HDRip.avi
Format : AVI
Format/Info : Audio Video Interleave
File size : 742 MiB
Duration : 1h 41mn
Overall bit rate : 1 020 Kbps
Writing application : VirtualDubMod 1.5.10.2 (build 2540/release)
Writing library : VirtualDubMod build 2540/release
Video
ID : 0
Format : MPEG-4 Visual
Format profile : Advanced [email protected]
Format settings, BVOP : 1
Format settings, QPel : No
Format settings, GMC : No warppoints
Format settings, Matrix : Custom
Codec ID : XVID
Codec ID/Hint : XviD
Duration : 1h 41mn
Bit rate : 882 Kbps
Width : 688 pixels
Height : 288 pixels
Display aspect ratio : 2.40:1
Frame rate : 23.976 fps
Color space : YUV
Chroma subsampling : 4:2:0
Bit depth : 8 bits
Scan type : Progressive
Compression mode : Lossy
Bits/(Pixel*Frame) : 0.186
Stream size : 643 MiB (87%)
Writing library : XviD 1.2.1 (UTC 2008-12-04)
Audio
ID : 1
Format : MPEG Audio
Format version : Version 1
Format profile : Layer 3
Codec ID : 55
Codec ID/Hint : MP3
Duration : 1h 41mn
Bit rate mode : Constant
Bit rate : 128 Kbps
Channel(s) : 2 channels
Sampling rate : 48.0 KHz
Compression mode : Lossy
Stream size : 93.2 MiB (13%)
Alignment : Aligned on interleaves
Interleave, duration : 42 ms (1.00 video frame)
Interleave, preload duration : 504 ms
Writing library : LAME3.97
Encoding settings : -m s -V 4 -q 2 -lowpass 17 -b 128

Скриншоты



Создавать темы 18-Ноя-2011 10:05

[Профиль]  [ЛС] 

Asian_MEN

Стаж: 6 лет 6 месяцев

Сообщений: 21

фильм просто улет :bb: :bb: :bb: ag ag ag

Создавать темы 30-Ноя-2011 19:58

[Профиль]  [ЛС] 

a-rrrrr

Стаж: 5 лет 10 месяцев

Сообщений: 7

как скачать, у меня не качает

Создавать темы 01-Фев-2012 15:13

[Профиль]  [ЛС] 

Understuped

Стаж: 6 лет 7 месяцев

Сообщений: 107

Извините фильм был удалённ с компьютера по нехватки памяти приношу свои извенения

Создавать темы 19-Июн-2013 16:29

[Профиль]  [ЛС] 
Показать сообщения:    
Ответить на тему

Текущее время: 19-Дек 01:07

Часовой пояс: UTC + 5



Вы не можете начинать темы
Вы не можете отвечать на сообщения
Вы не можете редактировать свои сообщения
Вы не можете удалять свои сообщения
Вы не можете голосовать в опросах
Вы не можете прикреплять файлы к сообщениям
Вы не можете скачивать файлы