Путь домой / The Way Back (Питер Уир) [2010 г., Драма, Приключения, HDRip]

Ответить на тему
 

Mr_ALo ®

Стаж: 7 лет 11 месяцев

Сообщений: 367

Симпатии: 20

Путь домой / The Way Back Год выпуска: 2010
Страна: США, ОАЭ
Жанр: Драма, Приключения
Продолжительность: 02:13:11
Перевод: Профессиональный (многоголосый закадровый) [Лицензия]
Режиссер: Питер Уир
В ролях: Колин Фаррелл, Марк Стронг, Сирша Ронан, Джим Стёрджесс, Эд Харрис, Густаф Скарсгард, Александру Поточан, Себастьян Урзендовский, Драгош Букур, Захари Бахаров
Описание: 1940 год, Сибирь. Самый страшный лагерь для политзаключенных. Небольшая группа осужденных смогла вырваться из этого страшного места. Теперь их ждет путь домой. Долгий, очень трудный, минуя пустыни и горы, сталкиваясь с дикими животными и незнакомыми людьми. Они идут домой из последних сил, надеясь на встречу со своими близкими.
IMDb: 7.30 (24 339)
КиноПоиск: 6.398 (2 277)
слоган      «Their escape was just the beginning»
Качество: HDRip - рип с BDRip 1080p
Формат: AVI
Видео: XviD 688x288 23.976 fps, 703 Kbps
Аудио: MP3 48.0 KHz 2 channel, 128 Kbps

MediaInfo

General
Complete name : I:\Films\Путь домой 2010 HDRip.avi
Format : AVI
Format/Info : Audio Video Interleave
File size : 800 MiB
Duration : 2h 13mn
Overall bit rate : 840 Kbps
Writing application : VirtualDubMod 1.5.10.2 (build 2540/release)
Writing library : VirtualDubMod build 2540/release
Video
ID : 0
Format : MPEG-4 Visual
Format profile : Advanced [email protected]
Format settings, BVOP : 1
Format settings, QPel : No
Format settings, GMC : No warppoints
Format settings, Matrix : Custom
Codec ID : XVID
Codec ID/Hint : XviD
Duration : 2h 13mn
Bit rate : 703 Kbps
Width : 688 pixels
Height : 288 pixels
Display aspect ratio : 2.40:1
Frame rate : 23.976 fps
Color space : YUV
Chroma subsampling : 4:2:0
Bit depth : 8 bits
Scan type : Progressive
Compression mode : Lossy
Bits/(Pixel*Frame) : 0.148
Stream size : 670 MiB (84%)
Writing library : XviD 1.2.1 (UTC 2008-12-04)
Audio
ID : 1
Format : MPEG Audio
Format version : Version 1
Format profile : Layer 3
Codec ID : 55
Codec ID/Hint : MP3
Duration : 2h 13mn
Bit rate mode : Constant
Bit rate : 128 Kbps
Channel(s) : 2 channels
Sampling rate : 48.0 KHz
Compression mode : Lossy
Stream size : 122 MiB (15%)
Alignment : Aligned on interleaves
Interleave, duration : 42 ms (1.00 video frame)
Interleave, preload duration : 504 ms
Writing library : LAME3.97
Encoding settings : -m s -V 4 -q 2 -lowpass 17 -b 128

Скриншоты



Создавать темы 20-Ноя-2011 13:14

[Профиль]  [ЛС] 

virus2022

Стаж: 5 лет 10 месяцев

Сообщений: 16

и когда же раздача будет?

Создавать темы 16-Янв-2012 21:07

[Профиль]  [ЛС] 

Monroe

Стаж: 4 года 5 месяцев

Сообщений: 220

Симпатии: 62

А почему скринов нету? ac

Создавать темы 05-Сен-2013 19:31

[Профиль]  [ЛС] 

zip

Стаж: 6 лет 11 месяцев

Сообщений: 86

Вернитесь на раздачу пожалуйста

Создавать темы 22-Сен-2013 15:57

[Профиль]  [ЛС] 

boyman1

Стаж: 4 года 7 месяцев

Сообщений: 10

на раздачу встаньте ребята

Создавать темы 31-Мар-2014 11:26

[Профиль]  [ЛС] 

nautilus.splin

Стаж: 10 месяцев 19 дней

Сообщений: 1

раздааааачаааа

Создавать темы 08-Апр-2017 19:01

[Профиль]  [ЛС] 
Показать сообщения:    
Ответить на тему

Текущее время: 18-Ноя 02:16

Часовой пояс: UTC + 5



Вы не можете начинать темы
Вы не можете отвечать на сообщения
Вы не можете редактировать свои сообщения
Вы не можете удалять свои сообщения
Вы не можете голосовать в опросах
Вы не можете прикреплять файлы к сообщениям
Вы не можете скачивать файлы