Горечь и сладость / Dalkomhan insaeng / A Bittersweet Life (Ким Чжи Ун) [2005 г., Боевик, Драма, Криминал, Музыка, HDRip]

Ответить на тему
 

Mr_ALo ®

Стаж: 7 лет 10 месяцев

Сообщений: 367

Симпатии: 20

Горечь и сладость / Dalkomhan insaeng / A Bittersweet Life Год выпуска: 2005
Страна: Корея Южная
Жанр: Боевик, Драма, Криминал, Музыка
Продолжительность: 01:59:21
Перевод: Профессиональный (многоголосый закадровый) [Лицензия]
Режиссер: Ким Чжи Ун
В ролях: Ли Бён Хон, Чжон-мин Хван, Ю-Ми Жонг, Ку Джин, Hae-gon Kim. Рой-ха Ким, Ён-чхоль Ким, Ги-ён Ли, Му-ён Ли, Эрик Мун
Описание: Сон У — хладнокровный перфекционист, управляющий дорогим рестораном. Он настолько мастерски справляется с работой, что заслужил безграничное доверие босса своей банды, мистера Кана.
У мистера Кана есть проблема — похоже, его юная подружка Хи Су встречается с кем-то на стороне, довериться в этом деликатном деле Кан может лишь Сон У, приказывая ему убить девчонку, если подозрения окажутся правдой. Через несколько дней слежки Сон У застает ее с любовником, но к своему собственному удивлению нарушает приказ и отпускает голубков; эта роковая слабость ввергает банду в необратимую войну.
IMDb: 7.70 (10 201)
КиноПоиск: 7.804 (620)
слоган      «When doing right goes very, very wrong.»
Качество: HDRip - рип с BDRip 720p
Формат: AVI
Видео: XviD 672x272 23.976 fps, 750 Kbps
Аудио: MP3 48.0 KHz 2 channel, 112 Kbps

MediaInfo

General
Complete name : I:\Films\Горечь и сладость 2005 HDRip.avi
Format : AVI
Format/Info : Audio Video Interleave
File size : 744 MiB
Duration : 1h 59mn
Overall bit rate : 871 Kbps
Writing application : VirtualDubMod 1.5.10.2 (build 2540/release)
Writing library : VirtualDubMod build 2540/release
Video
ID : 0
Format : MPEG-4 Visual
Format profile : Advanced [email protected]
Format settings, BVOP : 1
Format settings, QPel : No
Format settings, GMC : No warppoints
Format settings, Matrix : Custom
Codec ID : XVID
Codec ID/Hint : XviD
Duration : 1h 59mn
Bit rate : 750 Kbps
Width : 672 pixels
Height : 272 pixels
Display aspect ratio : 2.471
Frame rate : 23.976 fps
Color space : YUV
Chroma subsampling : 4:2:0
Bit depth : 8 bits
Scan type : Progressive
Compression mode : Lossy
Bits/(Pixel*Frame) : 0.171
Stream size : 640 MiB (86%)
Writing library : XviD 1.2.1 (UTC 2008-12-04)
Audio
ID : 1
Format : MPEG Audio
Format version : Version 1
Format profile : Layer 3
Codec ID : 55
Codec ID/Hint : MP3
Duration : 1h 59mn
Bit rate mode : Constant
Bit rate : 112 Kbps
Channel(s) : 2 channels
Sampling rate : 48.0 KHz
Compression mode : Lossy
Stream size : 95.6 MiB (13%)
Alignment : Aligned on interleaves
Interleave, duration : 42 ms (1.00 video frame)
Interleave, preload duration : 504 ms

Скриншоты



Создавать темы 26-Ноя-2011 16:43

[Профиль]  [ЛС] 

Топик был перенесен из форума Зарубежное кино в форум Азиатские фильмы


victor0778

Создавать темы 12-Янв-2012 10:42

 

crazy_coreec

Стаж: 5 лет 8 месяцев

Сообщений: 2

А как его смотреть или скачать*?

Создавать темы 29-Янв-2012 18:07

[Профиль]  [ЛС] 

Al Capone

Стаж: 5 лет 8 месяцев

Сообщений: 5

А как его смотреть или скачать*?
Прогугли о торренте.

Создавать темы 29-Янв-2012 20:37

[Профиль]  [ЛС] 

Sparrow

Стаж: 5 лет 7 месяцев

Сообщений: 14

Симпатии: 2

Отличный фильм, особенно момент

Осторожно, спойлер!

когда он из могилы вылезает, и еще чуть позже, когда он на стройке всех мочит и сбегает. Жестокий, что часто бывает в азиатских фильмах (почему интересно?).

Создавать темы 16-Мар-2012 22:11

[Профиль]  [ЛС] 

Misato

Стаж: 5 лет 6 месяцев

Сообщений: 37

Симпатии: 1

Горечь Сладкой Лжи...Правильное название...Фильм хороший.

Создавать темы 17-Апр-2012 00:24

[Профиль]  [ЛС] 
Показать сообщения:    
Ответить на тему

Текущее время: 18-Окт 03:06

Часовой пояс: UTC + 5



Вы не можете начинать темы
Вы не можете отвечать на сообщения
Вы не можете редактировать свои сообщения
Вы не можете удалять свои сообщения
Вы не можете голосовать в опросах
Вы не можете прикреплять файлы к сообщениям
Вы не можете скачивать файлы