Призрак Оперы / The Phantom Of The Opera (Джоэл Шумахер) [2004 г., мюзикл, триллер, мелодрама, DVDRip]

Ответить на тему
 

artabaz ®

Стаж: 6 лет 4 месяца

Сообщений: 11

Призрак Оперы / The Phantom Of The Opera
Год выпуска: 2004
Страна: США, Великобритания
Жанр: мюзикл, триллер, мелодрама
Продолжительность: 145 мин.
Перевод: Профессиональный (полное дублирование)
Режиссер: Джоэл Шумахер
В ролях: Джерард Батлер, Эмми Россам, Патрик Уилсон, Миранда Ричардсон, Минни Драйвер, Кьяран Хайндс, Саймон Кэллоу, Виктор МакГуайр, Дженнифер Эллисон, Мюррэй Мелвин
Описание: Таинственный голос взывает к молодой оперной певице Кристине из мрачных недр величественной Парижской оперы. Лишь один человек в труппе знает, что невидимый покровитель и наставник Кристины, наводящий ужас на артистов, — обезображенный гений музыки, влюбленный в юную красавицу.
Призрак в маске сделает все, чтобы она стала примадонной сцены, однако у него есть властный соперник — богатый виконт Рауль де Шаньи. Став пленницей любовного треугольника, Кристина должна сделать выбор. Но страсти, что вскружили голову, свирепая ревность и безумная любовь уже вынесли возлюбленным свой немилосердный приговор…
Доп. информация: Экранизация самого кассового мюзикла в истории. Композитор Эндрю Ллойд Уэббер. Музыкальные фрагменты субтитрированы!
Качество: DVDRip
Формат: AVI
Видео кодек: XviD
Аудио кодек: AC3
Видео: Bit rate : 252 Kbps, Width : 720 pixels, Height : 308 pixels, Display aspect ratio : 2.35:1, Frame rate : 25.000 fps
Аудио: Bit rate mode : Constant, Bit rate : 192 Kbps, Channel(s) : 2 channels, Sampling rate : 48.0 KHz, Bit depth : 16 bits

Скриншоты





 

Media Info

Format : AVI
Format/Info : Audio Video Interleave
Format profile : OpenDML
File size : 1.24 GiB
Duration : 2h 15mn
Overall bit rate : 1 312 Kbps
Writing application : Lavf52.78.4
Video #0
ID : 0
Format : MPEG-4 Visual
Format profile : Advanced [email protected]
Format settings, BVOP : 2
Format settings, QPel : No
Format settings, GMC : No warppoints
Format settings, Matrix : Default (H.263)
Muxing mode : Packed bitstream
Codec ID : XVID
Codec ID/Hint : XviD
Duration : 2h 15mn
Bit rate : 252 Kbps
Width : 720 pixels
Height : 308 pixels
Display aspect ratio : 2.35:1
Frame rate : 25.000 fps
Color space : YUV
Chroma subsampling : 4:2:0
Bit depth : 8 bits
Scan type : Progressive
Compression mode : Lossy
Bits/(Pixel*Frame) : 0.045
Stream size : 243 MiB (19%)
Writing library : XviD 1.2.1 (UTC 2008-12-04)
Audio #1
ID : 1
Format : AC-3
Format/Info : Audio Coding 3
Mode extension : CM (complete main)
Codec ID : 2000
Duration : 2h 15mn
Bit rate mode : Constant
Bit rate : 192 Kbps
Channel(s) : 2 channels
Channel positions : Front: L R
Sampling rate : 48.0 KHz
Bit depth : 16 bits
Compression mode : Lossy
Stream size : 34.9 MiB (3%)
Alignment : Aligned on interleaves
Interleave, duration : 39 ms (0.97 video frame)

Создавать темы 03-Дек-2011 21:34

[Профиль]  [ЛС] 

DooM

Стаж: 6 лет 1 месяц

Сообщений: 809

Симпатии: 30

А есть тот Призрак оперы в которой играет Роберт Энглунд?

Создавать темы 03-Дек-2011 22:01

[Профиль]  [ЛС] 

artabaz ®

Стаж: 6 лет 4 месяца

Сообщений: 11

К сожалению, нету

Создавать темы 03-Дек-2011 23:11

[Профиль]  [ЛС] 

DooM

Стаж: 6 лет 1 месяц

Сообщений: 809

Симпатии: 30

Жалко так хочу его достать..))

Создавать темы 03-Дек-2011 23:25

[Профиль]  [ЛС] 

[email protected]-jack

Стаж: 6 лет 7 месяцев

Сообщений: 18

англ. дорожка есть?? ато песенки эти только на английском интересны ab

Создавать темы 03-Дек-2011 23:29

[Профиль]  [ЛС] 

artabaz ®

Стаж: 6 лет 4 месяца

Сообщений: 11

вся музыкальная часть фильма исполняется на английском языке с русскими субтитрами

Создавать темы 03-Дек-2011 23:53

[Профиль]  [ЛС] 

[email protected]

Стаж: 6 лет 7 месяцев

Сообщений: 18

тада качаю!!!!!! ar

Создавать темы 04-Дек-2011 02:57

[Профиль]  [ЛС] 

legis_ne

Стаж: 5 лет 7 месяцев

Сообщений: 1

Не качает! Дайте скорости плиз...

Создавать темы 26-Май-2012 21:18

[Профиль]  [ЛС] 

Fantazy

Стаж: 5 лет 7 месяцев

Сообщений: 18

Скорости, пожалуйста)

Создавать темы 29-Июн-2012 01:30

[Профиль]  [ЛС] 

Fantazy

Стаж: 5 лет 7 месяцев

Сообщений: 18

Совсем не качает - завис на 58 процентах и все((

Создавать темы 01-Июл-2012 22:21

[Профиль]  [ЛС] 

frodo

Стаж: 5 лет 10 месяцев

Сообщений: 3

точно! и пишет нерегистрированный торрент-файл

Создавать темы 08-Июл-2012 11:08

[Профиль]  [ЛС] 

tAtAr41K

Стаж: 4 года 4 месяца

Сообщений: 3

Скорости плизззззззз

Создавать темы 14-Фев-2014 22:30

[Профиль]  [ЛС] 

bes_t

Стаж: 6 лет 7 месяцев

Сообщений: 74

Симпатии: 11

раздать может ктонить?

Создавать темы 22-Май-2014 23:29

[Профиль]  [ЛС] 

NighTKon

Стаж: 6 лет 9 месяцев

Сообщений: 19

Симпатии: 2

ПОтсаьте на раздачу плз

Создавать темы 08-Май-2016 13:37

[Профиль]  [ЛС] 
Показать сообщения:    
Ответить на тему

Текущее время: 21-Ноя 09:34

Часовой пояс: UTC + 5



Вы не можете начинать темы
Вы не можете отвечать на сообщения
Вы не можете редактировать свои сообщения
Вы не можете удалять свои сообщения
Вы не можете голосовать в опросах
Вы не можете прикреплять файлы к сообщениям
Вы не можете скачивать файлы