Подземелье / Underground (Рафаэль Айзенман / Rafael Eisenman) [2011 г., Ужасы, DVDRip]

Страницы :  1, 2  След.

Ответить на тему
 

SoulOfDream ®

Стаж: 6 лет 9 месяцев

Сообщений: 174

Симпатии: 5

Подземелье / Underground- Год выпуска: 2011
Страна: США
Жанр: Ужасы
Продолжительность: 01:23:05
Перевод: Любительский (одноголосый)-Режиссер: Рафаэль Айзенман / Rafael Eisenman
В ролях: Росс Томас, София Пернас, Кристин Евангелиста, Адриан Р’Манте, Инбар Лави, Джефф Д’Агостино, Меган Хенсли, Дженна Хьюз-Описание: Держите мальчишки, свои штанишки, этот фильм заставит вас выскочить из трусов. Самый ожидаемый фильм ужасов 2011 года!!!
Группа друзей борется за свою жизнь против смертельных существ, скрывающихся под землей. Парни окажутся во власти тварей, генетически выращенных военными как расходный материал в бою. Они сильнее и быстрее, чем люди и могут уничтожить своих врагов голыми руками и зубами. Эти существа выжили в темноте, питаясь любой плотью, которая забредала в их логово. Парни прошли войну в Ираке, но никогда не испытывали такого страха, как тот, который они получили, оказавшись в подземелье.
-

MediaInfo

General
Complete name : *:\*\Underground\Underground.2011.DVDRip.XviD-R1shpil.avi
Format : AVI
Format/Info : Audio Video Interleave
File size : 761 MiB
Duration : 1h 23mn
Overall bit rate : 1 281 Kbps
Writing application : VirtualDubMod 1.5.10.2 (build 2540/release)
Writing library : VirtualDubMod build 2540/release
Video
ID : 0
Format : MPEG-4 Visual
Format profile : [email protected]
Format settings, BVOP : No
Format settings, QPel : No
Format settings, GMC : No warppoints
Format settings, Matrix : Default (H.263)
Codec ID : XVID
Codec ID/Hint : XviD
Duration : 1h 23mn
Bit rate : 1 079 Kbps
Width : 624 pixels
Height : 256 pixels
Display aspect ratio : 2.40:1
Frame rate : 25.000 fps
Color space : YUV
Chroma subsampling : 4:2:0
Bit depth : 8 bits
Scan type : Progressive
Compression mode : Lossy
Bits/(Pixel*Frame) : 0.270
Stream size : 641 MiB (84%)
Writing library : XviD 64
Audio
ID : 1
Format : AC-3
Format/Info : Audio Coding 3
Mode extension : CM (complete main)
Codec ID : 2000
Duration : 1h 23mn
Bit rate mode : Constant
Bit rate : 192 Kbps
Channel(s) : 2 channels
Channel positions : Front: L R
Sampling rate : 48.0 KHz
Bit depth : 16 bits
Compression mode : Lossy
Stream size : 114 MiB (15%)
Alignment : Split accross interleaves
Interleave, duration : 40 ms (1.00 video frame)
Interleave, preload duration : 500 ms
-Качество: DVDRip
Формат: AVI
Видео кодек: XviD
Аудио кодек: AC3
Видео: Xvid 624x256 25.00fps 1078kbps [Video 0]
Аудио: Dolby AC3 48000Hz stereo 192kbps [Audio 1]
-

Скриншоты



Создавать темы 10-Дек-2011 14:07

[Профиль]  [ЛС] 

victor0778

Стаж: 6 лет 8 месяцев

Сообщений: 1670

Симпатии: 142

это там где DVDRip и не пахнет(или я ошибаюсь)

Создавать темы 10-Дек-2011 15:07

[Профиль]  [ЛС] 

Руслан

Стаж: 7 лет 10 месяцев

Сообщений: 166

Симпатии: 2

Самый ожидаемый фильм ужасов 2011 года!!!
Откуда такая инфа? Или это на ТВ-3 его так ждут?

Создавать темы 10-Дек-2011 16:47

[Профиль]  [ЛС] 

victor0778

Стаж: 6 лет 8 месяцев

Сообщений: 1670

Симпатии: 142

Самый ожидаемый фильм ужасов 2011 года!!!
Откуда такая инфа? Или это на ТВ-3 его так ждут?
Замануха

Создавать темы 10-Дек-2011 16:50

[Профиль]  [ЛС] 

turk

Стаж: 6 лет 3 месяца

Сообщений: 9

Мне уже нравится фильм !!!! Давай те залейте лицензианый жду!!!

Создавать темы 10-Дек-2011 16:54

[Профиль]  [ЛС] 

Senat

Стаж: 6 лет 8 месяцев

Сообщений: 251

Francisco
Большое спс обожаю фильм ужасов az

Создавать темы 10-Дек-2011 16:57

[Профиль]  [ЛС] 

Sinema_uz

Стаж: 6 лет 9 месяцев

Сообщений: 303

Симпатии: 4

РАЗДАЧИ НЕТ ГАЗУ ДАЕТЕ

Создавать темы 10-Дек-2011 17:22

[Профиль]  [ЛС] 

shavkat8999

Стаж: 6 лет 8 месяцев

Сообщений: 108

Симпатии: 5

супер!!!!! ay bo

Создавать темы 10-Дек-2011 17:44

[Профиль]  [ЛС] 

victor0778

Стаж: 6 лет 8 месяцев

Сообщений: 1670

Симпатии: 142

Francisco,пока тебя нет буду раздавать за тебя

Создавать темы 11-Дек-2011 02:24

[Профиль]  [ЛС] 

Irgashev1988

Стаж: 5 лет 11 месяцев

Сообщений: 13

добавте скорость bl

Создавать темы 11-Дек-2011 10:55

[Профиль]  [ЛС] 

Dilik91

Стаж: 6 лет 11 месяцев

Сообщений: 60

Симпатии: 1

Это не похож на DVDRip ac

Создавать темы 11-Дек-2011 12:07

[Профиль]  [ЛС] 

Senat

Стаж: 6 лет 8 месяцев

Сообщений: 251

Francisco
когда будет раздача?

Создавать темы 11-Дек-2011 12:29

[Профиль]  [ЛС] 

eeed

Стаж: 6 лет 9 месяцев

Сообщений: 63

Симпатии: 6

рейтинг 4.1
тв3?

Создавать темы 11-Дек-2011 12:32

[Профиль]  [ЛС] 

EmeraldBay

Стаж: 6 лет 9 месяцев

Сообщений: 43

иной 700 меговый лучше 1.3 гигового по качеству картинки бывает. ну или на крайняк такого же качества.


Последний раз редактировалось: EmeraldBay (2011-12-11 16:07), всего редактировалось 1 раз

Создавать темы 11-Дек-2011 16:07

[Профиль]  [ЛС] 

Senat

Стаж: 6 лет 8 месяцев

Сообщений: 251

victor0778
ну же давай начни раздачу

Создавать темы 11-Дек-2011 17:07

[Профиль]  [ЛС] 
Показать сообщения:    
Ответить на тему

Текущее время: 23-Окт 11:22

Часовой пояс: UTC + 5



Вы не можете начинать темы
Вы не можете отвечать на сообщения
Вы не можете редактировать свои сообщения
Вы не можете удалять свои сообщения
Вы не можете голосовать в опросах
Вы не можете прикреплять файлы к сообщениям
Вы не можете скачивать файлы