История игрушек: Гавайские каникулы / Toy Story Toons: Hawaiian Vacation (Гари Ридстром / Gary Rydstrom) [2011, мультфильм, короткометражка, комедия, семейный, BDRip 720p]

Ответить на тему
 

esseker ®

Стаж: 7 лет 10 месяцев

Сообщений: 33

Симпатии: 2

История игрушек: Гавайские каникулы / Toy Story Toons: Hawaiian Vacation Страна: США
Студия: Pixar Animation Studios
Жанр: мультфильм, короткометражка, комедия, семейный
Год выпуска: 2011
Продолжительность: 00:05:53
Перевод: профессиональный (дублированный)
Оригинальная аудиодорожка: английский
Cубтитры: нет--Режиссер: Гари Ридстром / Gary Rydstrom-Дубляж: Станислав Концевич, Оксана Фёдорова, Борис Улитин, Юлия Рудина, Алексей Макрецкий...-Описание: Кен и Барби планируют романтический побег в тропический рай, но удастся ли им осуществить задуманное?..--Кинопоиск: 7.651 (317)
IMDB: 7.80 (389)--Качество: BDRip 720p
Контейнер: MKV
Видеокодек: H.264
Аудиокодек: AC3--Видео: 1280x720, 4048 Кбит/сек, 23.976 кадр/сек
Аудио 1: AC3, 384 Кбит/сек, 6 каналов, 48.0 КГц - дубляж
Аудио 2: AC3, 640 Кбит/сек, 6 каналов, 48.0 КГц - оригинал--

MI

General
Format : Matroska
Format version : Version 2
File size : 218 MiB
Duration : 5mn 53s
Overall bit rate : 5 175 Kbps
Movie name : Rip by esseker
Encoded date : UTC 2011-12-17 12:38:57
Writing application : mkvmerge v4.0.0 ('The Stars were mine') сборка от Jun 6 2010 16:18:42
Writing library : libebml v1.0.0 + libmatroska v1.0.0
Video
ID : 1
Format : AVC
Format/Info : Advanced Video Codec
Format profile : [email protected]
Format settings, CABAC : Yes
Format settings, ReFrames : 9 frames
Codec ID : V_MPEG4/ISO/AVC
Duration : 5mn 53s
Bit rate : 4 048 Kbps
Width : 1 280 pixels
Height : 720 pixels
Display aspect ratio : 16:9
Frame rate : 23.976 fps
Color space : YUV
Chroma subsampling : 4:2:0
Bit depth : 8 bits
Scan type : Progressive
Bits/(Pixel*Frame) : 0.183
Stream size : 171 MiB (78%)
Writing library : x264 core 119 r2106 07efeb4
Language : English
Default : No
Forced : No
Matrix coefficients : BT.709-5, BT.1361, IEC 61966-2-4 709, SMPTE RP177
Audio #1
ID : 2
Format : AC-3
Format/Info : Audio Coding 3
Mode extension : CM (complete main)
Codec ID : A_AC3
Duration : 5mn 53s
Bit rate mode : Constant
Bit rate : 384 Kbps
Channel(s) : 6 channels
Channel positions : Front: L C R, Side: L R, LFE
Sampling rate : 48.0 KHz
Bit depth : 16 bits
Compression mode : Lossy
Stream size : 16.2 MiB (7%)
Language : Russian
Default : No
Forced : No
Audio #2
ID : 3
Format : AC-3
Format/Info : Audio Coding 3
Mode extension : CM (complete main)
Codec ID : A_AC3
Duration : 5mn 53s
Bit rate mode : Constant
Bit rate : 640 Kbps
Channel(s) : 6 channels
Channel positions : Front: L C R, Side: L R, LFE
Sampling rate : 48.0 KHz
Bit depth : 16 bits
Compression mode : Lossy
Stream size : 27.0 MiB (12%)
Language : English
Default : No
Forced : No
--

Скриншоты


Создавать темы 17-Дек-2011 17:59

[Профиль]  [ЛС] 

esseker ®

Стаж: 7 лет 10 месяцев

Сообщений: 33

Симпатии: 2

не забываем нажать кнопку..

Создавать темы 17-Дек-2011 18:52

[Профиль]  [ЛС] 

victor0778

Стаж: 6 лет 7 месяцев

Сообщений: 1670

Симпатии: 142

постер и скриншоты на другой хост залей, и в ролях допиши

Создавать темы 05-Янв-2012 14:06

[Профиль]  [ЛС] 

Pendalf

Стаж: 6 лет 3 месяца

Сообщений: 416

Симпатии: 34

Минимальный средний битрейт для видеопотока рипов:
-----------------------------------------------
720p с AR 2.4, 2.35 — 4000 kbps
720p с AR 1.85, 1.78 — 5200 kbps
Видео: 1280x720, 4048 Кбит/сек, 23.976 кадр/сек

Создавать темы 23-Янв-2012 00:06

[Профиль]  [ЛС] 

Топик был перенесен из форума Мультфильмы в форум HD-AVC


Pendalf

Создавать темы 23-Янв-2012 00:06

 

kamoladdin

Стаж: 6 лет 5 месяцев

Сообщений: 41

Симпатии: 1

дайте скорости плиз

Создавать темы 03-Ноя-2012 15:48

[Профиль]  [ЛС] 

Liga

Стаж: 5 лет 7 месяцев

Сообщений: 19

Сиды bi где вы?!!! дайте до качать, не много осталось

Создавать темы 15-Мар-2013 21:56

[Профиль]  [ЛС] 
Показать сообщения:    
Ответить на тему

Текущее время: 25-Сен 20:22

Часовой пояс: UTC + 5



Вы не можете начинать темы
Вы не можете отвечать на сообщения
Вы не можете редактировать свои сообщения
Вы не можете удалять свои сообщения
Вы не можете голосовать в опросах
Вы не можете прикреплять файлы к сообщениям
Вы не можете скачивать файлы