Наёмники / Mercenaries (Пэрис Леонти / Paris Leonti) [2011 г., боевик, драма, DVDRip]

Ответить на тему
 

Мирзохид ®

Стаж: 7 лет 2 месяца

Сообщений: 68

Симпатии: 20

Наёмники / Mercenaries
Год выпуска: 2011
Страна: Великобритания
Жанр: Боевик, драма
Продолжительность: 01:32:58
Перевод: Любительский (одноголосый)
Режиссер: Пэрис Леонти / Paris Leonti
В ролях: Роберт Фукилла, Билли Зейн, Кирсти Митчел, Джофф Белл, Вэс Блэквуд и др.
Описание: Энди Марлоу, посылают на Балканы после возникновения военного переворота, чтобы спасти американского посла и его помощника.
Качество: DVDRip
Формат: AVI
Видео кодек: XviD
Аудио кодек: AC3
Видео: 720x296, 25.000 fps, 1 844 Kbps
Аудио: 6 channels, 48.0 KHz, 448 Kbps

Media Info

Format : AVI
Format/Info : Audio Video Interleave
File size : 1.49 GiB
Duration : 1h 32mn
Overall bit rate : 2 301 Kbps
Writing application : Lavf52.39.1
Writing library : VirtualDub build 32507/release
Video
ID : 0
Format : MPEG-4 Visual
Format profile : Advanced [email protected]
Format settings, BVOP : Yes
Format settings, QPel : No
Format settings, GMC : No warppoints
Format settings, Matrix : Default (H.263)
Codec ID : XVID
Codec ID/Hint : XviD
Duration : 1h 32mn
Bit rate : 1 844 Kbps
Width : 720 pixels
Height : 296 pixels
Display aspect ratio : 2.40:1
Frame rate : 25.000 fps
Resolution : 8 bits
Colorimetry : 4:2:0
Scan type : Progressive
Bits/(Pixel*Frame) : 0.346
Stream size : 1.20 GiB (80%)
Writing library : XviD 1.2.1 (UTC 2008-12-04)
Audio
ID : 1
Format : AC-3
Format/Info : Audio Coding 3
Codec ID : 2000
Duration : 1h 32mn
Bit rate mode : Constant
Bit rate : 448 Kbps
Channel(s) : 6 channels
Channel positions : Front: L C R, Surround: L R, LFE
Sampling rate : 48.0 KHz
Stream size : 298 MiB (19%)
Alignment : Aligned on interleaves
Interleave, duration : 40 ms (1.00 video frame)
Interleave, preload duration : 512 ms

Скриншоты



Создавать темы 27-Дек-2011 04:40

[Профиль]  [ЛС] 

Эмиль

Стаж: 7 лет 11 месяцев

Сообщений: 20

Симпатии: 9

На 3 скрине в красной ковте РуСсКиЙ!!!

Создавать темы 29-Дек-2011 17:22

[Профиль]  [ЛС] 

bagesh

Стаж: 7 лет 4 месяца

Сообщений: 45

спасибо за фильм

Создавать темы 31-Дек-2011 11:26

[Профиль]  [ЛС] 

Sobirov

Стаж: 6 лет 3 месяца

Сообщений: 3

21

Создавать темы 03-Янв-2012 02:07

[Профиль]  [ЛС] 

heRz_

Стаж: 6 лет 5 месяцев

Сообщений: 24

Оформи нормально. и рейтинг укажи.

Создавать темы 05-Янв-2012 20:06

[Профиль]  [ЛС] 

victor0778

Стаж: 6 лет 7 месяцев

Сообщений: 1670

Симпатии: 142

heRz_, а что в оформлении не устраивает

Создавать темы 05-Янв-2012 20:23

[Профиль]  [ЛС] 
Показать сообщения:    
Ответить на тему

Текущее время: 20-Сен 09:00

Часовой пояс: UTC + 5



Вы не можете начинать темы
Вы не можете отвечать на сообщения
Вы не можете редактировать свои сообщения
Вы не можете удалять свои сообщения
Вы не можете голосовать в опросах
Вы не можете прикреплять файлы к сообщениям
Вы не можете скачивать файлы