Анонимные романтики / Les émotifs anonymes (Жан-Пьерр Амери) [2010 г., Мелодрама, Комедия, HDRip]

Ответить на тему
 

Mr_ALo ®

Стаж: 7 лет 8 месяцев

Сообщений: 367

Симпатии: 20

Анонимные романтики / Les émotifs anonymes Год выпуска: 2010
Страна: Франция, Бельгия
Жанр: Мелодрама, Комедия
Продолжительность: 01:17:40
Перевод: Профессиональный (многоголосый закадровый) [Лицензия]
Режиссер: Жан-Пьерр Амери
В ролях: Бенуа Пульворд, Изабелль Карре, Лорелла Кравотта, Lise Lamétrie, Сванн Арло, Пьере Нинье, Стефан Войтович, Жак Буде, Алис Поль, Селин Дюамель
Описание: Скромный кондитер Жан-Рене и его новая обаятельная сотрудница Анжелика — идеальная пара: они оба без ума от шоколада, романтичной музыки и парижских вечеров под развесистыми каштанами. Но оба — ужасно стеснительны, и ни один из них никак не решится сделать ответственный шаг навстречу зову сердца. Смогут ли предназначенные друг для друга возлюбленные преодолеть природную робость или так и суждено им в одиночестве посещать собрания Общества Анонимных Романтиков?- -слоган «Париж, любовь и шоколад»
Качество: HDRip - рип с BDRip 1080p
Формат: AVI
Видео: XviD 688x288 23.976 fps, 1 200 Kbps
Аудио: MP3 48.0 KHz 2 channel, 128 Kbps

MediaInfo

General
Complete name : I:\Films\Анонимные романтики 2010 HDRip.avi
Format : AVI
Format/Info : Audio Video Interleave
File size : 743 MiB
Duration : 1h 17mn
Overall bit rate : 1 337 Kbps
Movie name : Les.emotifs.anonymes.2011.HDRip.MVO.All.Films
Director : DIABLO93
Genre : Comedy/Romance
Writing application : VirtualDubMod 1.5.10.3 | www.virtualdub-fr.org || (build 2550/release)
Original source form/Name : Movie
Copyright : Rutracker.org (R.G. All Films)
Video
ID : 0
Format : MPEG-4 Visual
Format profile : Advanced [email protected]
Format settings, BVOP : 2
Format settings, QPel : No
Format settings, GMC : No warppoints
Format settings, Matrix : Custom
Codec ID : XVID
Codec ID/Hint : XviD
Duration : 1h 17mn
Bit rate : 1 200 Kbps
Width : 688 pixels
Height : 288 pixels
Display aspect ratio : 2.40:1
Frame rate : 23.976 fps
Color space : YUV
Chroma subsampling : 4:2:0
Bit depth : 8 bits
Scan type : Progressive
Compression mode : Lossy
Bits/(Pixel*Frame) : 0.253
Stream size : 666 MiB (90%)
Writing library : XviD 64
Audio
ID : 1
Format : MPEG Audio
Format version : Version 1
Format profile : Layer 3
Codec ID : 55
Codec ID/Hint : MP3
Duration : 1h 17mn
Bit rate mode : Constant
Bit rate : 128 Kbps
Channel(s) : 2 channels
Sampling rate : 48.0 KHz
Compression mode : Lossy
Stream size : 71.1 MiB (10%)
Alignment : Aligned on interleaves
Interleave, duration : 42 ms (1.00 video frame)
Interleave, preload duration : 504 ms
Writing library : LAME3.98r
Encoding settings : -m s -V 4 -q 2 -lowpass 17 -b 128

Скриншоты



Создавать темы 03-Янв-2012 16:13

[Профиль]  [ЛС] 

zohiddd

Стаж: 4 года 11 месяцев

Сообщений: 2

Mr_ALo, Mr_ALo,

Создавать темы 27-Сен-2012 22:19

[Профиль]  [ЛС] 
Показать сообщения:    
Ответить на тему

Текущее время: 23-Авг 19:04

Часовой пояс: UTC + 5



Вы не можете начинать темы
Вы не можете отвечать на сообщения
Вы не можете редактировать свои сообщения
Вы не можете удалять свои сообщения
Вы не можете голосовать в опросах
Вы не можете прикреплять файлы к сообщениям
Вы не можете скачивать файлы