Профессионал / Killer Elite (Гэри МакКендри) [2011 г., Боевик, триллер, BDRip-720р]

Страницы :  1, 2  След.

Ответить на тему
 

ziyod ®

Стаж: 7 лет 5 месяцев

Сообщений: 367

Симпатии: 60

Профессионал
Killer Elite

«May the Best Man Liv.»
-Информация о фильме:
Год выпуска: 2011
Страна: США, Omnilab Media
Жанр: Боевик, триллер
Продолжительность: 01:56:42
Перевод: Профессиональный (полное дублирование) [Лицензия]
Режиссер: Гэри МакКендри-В ролях: Джейсон Стэтхэм, Клайв Оуэн, Роберт Де Ниро, Ивонн Страховски, Доминик Пурселл, Адевале Акиннуойе-Агбадже, Майкл Дорман, Грант Боулер, Бен Мендельсон, Кристи Барнс Каллен
Описание: Бывшему бойцу британских силовых структур приходится забыть о тихой размеренной жизни отставника, когда его лучший друг оказывается в опасности.-Рейтинг:
-Файл:
Качество: BDRip-720р
Формат: MKV
Видео кодек: H.26x
Видео: 5193 kb/s, 1280x536
Аудио 1: AC3, 448 kb/s (6 ch) (Русский)
Аудио 2: DTS, 1510 kb/s (6 ch) (Оригинал)-

MI

General
Unique ID                                : 188700264176685647124752688292760169821 (0x8DF659536BFCFA6280865E7FB460AD5D)
Complete name                            : Professional.2011.D.BDRip.720p.mkv
Format                                   : Matroska
Format version                           : Version 2
File size                                : 5.83 GiB
Duration                                 : 1h 56mn
Overall bit rate                         : 7 150 Kbps
Encoded date                             : UTC 2012-01-01 22:08:59
Writing application                      : mkvmerge v3.3.0 ('Language') built on Mar 24 2010 14:59:24
Writing library                          : libebml v0.8.0 + libmatroska v0.9.0
Video
ID                                       : 1
Format                                   : AVC
Format/Info                              : Advanced Video Codec
Format profile                           : [email protected]
Format settings, CABAC                   : Yes
Format settings, ReFrames                : 5 frames
Codec ID                                 : V_MPEG4/ISO/AVC
Duration                                 : 1h 56mn
Bit rate                                 : 5 193 Kbps
Width                                    : 1 280 pixels
Height                                   : 536 pixels
Display aspect ratio                     : 2.40:1
Frame rate                               : 23.976 fps
Color space                              : YUV
Chroma subsampling                       : 4:2:0
Bit depth                                : 8 bits
Scan type                                : Progressive
Bits/(Pixel*Frame)                       : 0.316
Stream size                              : 4.12 GiB (71%)
Writing library                          : x264 core 120 r2120 0c7dab9
Encoding settings                        : cabac=1 / ref=5 / deblock=1:0:0 / analyse=0x3:0x113 / me=umh / subme=8 / psy=1 / psy_rd=1.00:0.00 / mixed_ref=1 / me_range=16 / chroma_me=1 / trellis=1 / 8x8dct=1 / cqm=0 / deadzone=21,11 / fast_pskip=1 / chroma_qp_offset=-2 / threads=12 / sliced_threads=0 / nr=0 / decimate=1 / interlaced=0 / bluray_compat=0 / constrained_intra=0 / bframes=3 / b_pyramid=2 / b_adapt=2 / b_bias=0 / direct=3 / weightb=1 / open_gop=0 / weightp=2 / keyint=240 / keyint_min=24 / scenecut=40 / intra_refresh=0 / rc_lookahead=50 / rc=2pass / mbtree=1 / bitrate=5193 / ratetol=1.0 / qcomp=0.60 / qpmin=0 / qpmax=69 / qpstep=4 / cplxblur=20.0 / qblur=0.5 / ip_ratio=1.40 / aq=1:1.00
Language                                 : English
Audio #1
ID                                       : 2
Format                                   : AC-3
Format/Info                              : Audio Coding 3
Mode extension                           : CM (complete main)
Codec ID                                 : A_AC3
Duration                                 : 1h 56mn
Bit rate mode                            : Constant
Bit rate                                 : 448 Kbps
Channel(s)                               : 6 channels
Channel positions                        : Front: L C R, Side: L R, LFE
Sampling rate                            : 48.0 KHz
Bit depth                                : 16 bits
Compression mode                         : Lossy
Delay relative to video                  : 22s 348ms
Stream size                              : 374 MiB (6%)
Language                                 : Russian
Audio #2
ID                                       : 3
Format                                   : DTS
Format/Info                              : Digital Theater Systems
Codec ID                                 : A_DTS
Duration                                 : 1h 56mn
Bit rate mode                            : Constant
Bit rate                                 : 1 510 Kbps
Channel(s)                               : 6 channels
Channel positions                        : Front: L C R, Side: L R, LFE
Sampling rate                            : 48.0 KHz
Bit depth                                : 24 bits
Compression mode                         : Lossy
Delay relative to video                  : 11ms
Stream size                              : 1.23 GiB (21%)
Language                                 : English
Text
ID                                       : 4
Format                                   : UTF-8
Codec ID                                 : S_TEXT/UTF8
Codec ID/Info                            : UTF-8 Plain Text
Language                                 : English
Menu
00:00:00.000                             : en:00:00:00.000
00:06:11.580                             : en:00:06:11.580
00:12:40.385                             : en:00:12:40.385
00:18:18.222                             : en:00:18:18.222
00:24:33.389                             : en:00:24:33.389
00:30:06.972                             : en:00:30:06.972
00:36:41.324                             : en:00:36:41.324
00:41:01.417                             : en:00:41:01.417
00:46:36.293                             : en:00:46:36.293
00:51:37.052                             : en:00:51:37.052
00:57:32.532                             : en:00:57:32.532
01:02:14.272                             : en:01:02:14.272
01:07:04.896                             : en:01:07:04.896
01:12:39.981                             : en:01:12:39.981
01:20:23.652                             : en:01:20:23.652
01:26:27.474                             : en:01:26:27.474
01:32:30.628                             : en:01:32:30.628
01:41:02.807                             : en:01:41:02.807
01:46:07.278                             : en:01:46:07.278
01:50:26.203                             : en:01:50:26.203

==>СКРИНШОТЫ<==






Последний раз редактировалось: ziyod (2012-02-17 18:29), всего редактировалось 1 раз

Создавать темы 04-Янв-2012 06:50

[Профиль]  [ЛС] 

shavkatjon

Стаж: 5 лет 7 месяцев

Сообщений: 10

Профессионал / Killer Elite (Гэри МакКендри) [2011 г., Боевик, триллер, BDRip-720р]

Создавать темы 04-Янв-2012 13:37

[Профиль]  [ЛС] 

Rufatus

Стаж: 6 лет 1 месяц

Сообщений: 38

ziyod, релиз супер, дай скорости плиз

Создавать темы 04-Янв-2012 14:27

[Профиль]  [ЛС] 

DMiTRY

Стаж: 6 лет 3 месяца

Сообщений: 649

Симпатии: 28

дорогие сидеры,встаньте пожалуйста на раздачу) а то уже нервов не хватает,какой фильм качаю со скоростью 30-40кбит) большое спасибо

Создавать темы 12-Янв-2012 18:09

[Профиль]  [ЛС] 

akhmadjon

Стаж: 5 лет 7 месяцев

Сообщений: 1

Дайте скорость пожалуйста

Создавать темы 04-Фев-2012 00:57

[Профиль]  [ЛС] 

Madnemec

Стаж: 7 лет 4 месяца

Сообщений: 51

Симпатии: 12

прибавьте пожалуйста скорости, столько раздающих а скачать невозможно

Создавать темы 02-Мар-2012 14:03

[Профиль]  [ЛС] 

akmalmetangaz

Стаж: 5 лет 6 месяцев

Сообщений: 5

thank you добавьте скорост

Создавать темы 15-Мар-2012 13:06

[Профиль]  [ЛС] 

FARA1696

Стаж: 5 лет 5 месяцев

Сообщений: 9

дайте скорость плиизззззз))))))))))))))))))))))))))))

Создавать темы 03-Апр-2012 01:05

[Профиль]  [ЛС] 

FARA1696

Стаж: 5 лет 5 месяцев

Сообщений: 9

блин(( скорости совсем нет((((((((

Создавать темы 03-Апр-2012 01:09

[Профиль]  [ЛС] 

FARA1696

Стаж: 5 лет 5 месяцев

Сообщений: 9

помогите люди добрые скачать этот фильму долбанный я его пол года как ищу но никак скачать блин не могу.. дайти скорости)))))

Создавать темы 03-Апр-2012 01:12

[Профиль]  [ЛС] 

FARA1696

Стаж: 5 лет 5 месяцев

Сообщений: 9

0,1 кб\с. это нормально да?((((((

Создавать темы 03-Апр-2012 01:13

[Профиль]  [ЛС] 

FARA1696

Стаж: 5 лет 5 месяцев

Сообщений: 9

дайте скорости плиз ..

Создавать темы 05-Апр-2012 13:59

[Профиль]  [ЛС] 

abduraimov

Стаж: 5 лет 4 месяца

Сообщений: 24

скорости дайте плиз....

Создавать темы 20-Апр-2012 21:40

[Профиль]  [ЛС] 

abduraimov

Стаж: 5 лет 4 месяца

Сообщений: 24

спасибо за фильм!!

Создавать темы 26-Апр-2012 19:53

[Профиль]  [ЛС] 

Акрам

Стаж: 6 лет 4 месяца

Сообщений: 39

Speed please!!!!!!!!!!!!!!!!!!

Создавать темы 16-Май-2012 09:34

[Профиль]  [ЛС] 
Показать сообщения:    
Ответить на тему

Текущее время: 23-Авг 03:44

Часовой пояс: UTC + 5



Вы не можете начинать темы
Вы не можете отвечать на сообщения
Вы не можете редактировать свои сообщения
Вы не можете удалять свои сообщения
Вы не можете голосовать в опросах
Вы не можете прикреплять файлы к сообщениям
Вы не можете скачивать файлы