Аноним / Anonymous (Роланд Эммерих) [2011 г., Триллер, Драма, HDRip]

Ответить на тему
 

Mr_ALo ®

Стаж: 8 лет

Сообщений: 367

Симпатии: 20

Аноним / Anonymous Год выпуска: 2011
Страна: Германия, Великобритания
Жанр: Триллер, Драма
Продолжительность: 02:10:05
Перевод: Профессиональный (дублированный)
Режиссер: Роланд Эммерих
В ролях: Рис Иванс, Ванесса Редгрейв, Себастьян Фернандес-Арместо, Рейф Сполл, Дэвид Тьюлис, Эдвард Хогг, Ксавьер Сэмюэл, Сэм Рейд, Джейми Кэмпбелл Бауэр, Джоэли Ричардсон
Описание: Фильм даст совершенно неожиданный ответ на извечный вопрос: а кем же «был или не был» Шекспир, и кто на самом деле скрывается за этим всемирно известным именем великого человека?
IMDb: 6.90 (3 306)
КиноПоиск: 7.611 (6 339)
слоган «Что скрывает имя Шекспир?»
Качество: HDRip - рип с BDRip 1080p
Формат: AVI
Видео кодек:XviD
Аудио кодек:MP3
Видео: XviD 640x272 23.976 fps, 705 Kbps
Аудио: MP3 48.0 KHz 2 channel, 128 Kbps

MediaInfo

General
Complete name : I:\Films\Аноним 2011 HDRip.avi
Format : AVI
Format/Info : Audio Video Interleave
File size : 784 MiB
Duration : 2h 10mn
Overall bit rate : 842 Kbps
Writing application : VirtualDubMod 1.5.10.2 (build 2540/release)
Writing library : VirtualDubMod build 2540/release
Video
ID : 0
Format : MPEG-4 Visual
Format profile : Advanced [email protected]
Format settings, BVOP : 1
Format settings, QPel : No
Format settings, GMC : No warppoints
Format settings, Matrix : Custom
Codec ID : XVID
Codec ID/Hint : XviD
Duration : 2h 10mn
Bit rate : 705 Kbps
Width : 640 pixels
Height : 272 pixels
Display aspect ratio : 2.35:1
Frame rate : 23.976 fps
Color space : YUV
Chroma subsampling : 4:2:0
Bit depth : 8 bits
Scan type : Progressive
Compression mode : Lossy
Bits/(Pixel*Frame) : 0.169
Stream size : 656 MiB (84%)
Writing library : XviD 1.2.1 (UTC 2008-12-04)
Audio
ID : 1
Format : MPEG Audio
Format version : Version 1
Format profile : Layer 3
Codec ID : 55
Codec ID/Hint : MP3
Duration : 2h 10mn
Bit rate mode : Constant
Bit rate : 128 Kbps
Channel(s) : 2 channels
Sampling rate : 48.0 KHz
Compression mode : Lossy
Stream size : 119 MiB (15%)
Alignment : Aligned on interleaves
Interleave, duration : 42 ms (1.00 video frame)
Interleave, preload duration : 504 ms
Writing library : LAME3.97
Encoding settings : -m s -V 4 -q 2 -lowpass 17 -b 128

Скриншоты



Создавать темы 06-Янв-2012 11:02

[Профиль]  [ЛС] 

eminem33634

Стаж: 6 лет 5 месяцев

Сообщений: 56

Думаю стоит запретить выкладывать постеры такого большого размера

Создавать темы 06-Янв-2012 19:03

[Профиль]  [ЛС] 

guitarman

Стаж: 6 лет 8 месяцев

Сообщений: 52

скорости дайте

Создавать темы 06-Янв-2012 20:37

[Профиль]  [ЛС] 

axxa

Стаж: 7 лет 1 месяц

Сообщений: 63

Симпатии: 2

фильм супер!

Создавать темы 10-Янв-2012 18:30

[Профиль]  [ЛС] 

dotist

Стаж: 5 лет 11 месяцев

Сообщений: 4

da super
    предупреждение 2.11. Использовать в общении на форуме язык, отличный от русского, и шрифт, отличный от кириллического.правила

Создавать темы 16-Янв-2012 19:37

[Профиль]  [ЛС] 

black_drow

Стаж: 7 лет 3 месяца

Сообщений: 58

Симпатии: 8

ХДРип - рип с БДРип 1080п всего 784 МБ ?

Создавать темы 22-Янв-2012 18:37

[Профиль]  [ЛС] 
Показать сообщения:    
Ответить на тему

Текущее время: 18-Дек 06:24

Часовой пояс: UTC + 5



Вы не можете начинать темы
Вы не можете отвечать на сообщения
Вы не можете редактировать свои сообщения
Вы не можете удалять свои сообщения
Вы не можете голосовать в опросах
Вы не можете прикреплять файлы к сообщениям
Вы не можете скачивать файлы