Бригада [2002 г., драма, криминал, SATRip ]

Страницы :  1, 2  След.

Ответить на тему
 

Зануда ®

Стаж: 6 лет 1 месяц

Сообщений: 4

Симпатии: 1

Бригада

Год выпуска: 2002
Страна: Россия
Жанр: драма, криминал
Продолжительность: 52 мин
В Ролях:Владимир Вдовиченков, Екатерина Гусева, Сергей Безруков, Дмитрий Дюжев, Мария Порошина, Павел Майков, Даниил Страхов
Режиссер: Алексей Сидоров-Описание: Это история четырех друзей детства, обычных московских парней, Саши Белого, Космоса, Пчелы и Фила, выросших в одном дворе. Друзья решили немного подзаработать, но незапланированное убийство вмиг перемешало все задуманное, поставив на кон их жизни.
Ставка слишком высока, но отступать некуда. Теперь парни прокладывают себе дорогу в криминальном мире и волею судеб превращаются в одну из самых сплоченных и влиятельных группировок…
-Аудио Кодек: MP3
Видео Кодек: XviD
Качество: SATRip
Формат: AVI-Видео данные: XviD, 720x432, 1663 kbps, 29.970 fps
Аудио данные: MP3, 174 kbps, 48.0 Khz, 2 ch-

Media Info

Format : AVI
Format/Info : Audio Video Interleave
File size : 700 MiB
Duration : 52mn 53s
Overall bit rate : 1 851 Kbps
Writing application : VirtualDubMod 1.5.4.1 (build 2178/release)
Writing library : VirtualDubMod build 2178/release
Video #0
ID : 0
Format : MPEG-4 Visual
Format profile : Advanced [email protected]
Format settings, BVOP : 1
Format settings, QPel : No
Format settings, GMC : No warppoints
Format settings, Matrix : Custom
Codec ID : XVID
Codec ID/Hint : XviD
Duration : 52mn 53s
Bit rate : 1 663 Kbps
Width : 720 pixels
Height : 432 pixels
Display aspect ratio : 1.667
Frame rate : 29.970 fps
Color space : YUV
Chroma subsampling : 4:2:0
Bit depth : 8 bits
Scan type : Progressive
Compression mode : Lossy
Bits/(Pixel*Frame) : 0.178
Stream size : 629 MiB (90%)
Writing library : XviD 1.2.0SMP (UTC 2006-01-08)
Audio #1
ID : 1
Format : MPEG Audio
Format version : Version 1
Format profile : Layer 3
Mode : Joint stereo
Mode extension : MS Stereo
Codec ID : 55
Codec ID/Hint : MP3
Duration : 52mn 36s
Bit rate mode : Variable
Bit rate : 174 Kbps
Nominal bit rate : 192 Kbps
Channel(s) : 2 channels
Sampling rate : 48.0 KHz
Compression mode : Lossy
Stream size : 65.7 MiB (9%)
Alignment : Aligned on interleaves
Interleave, duration : 24 ms (0.72 video frame)
Interleave, preload duration : 510 ms
Writing library : LAME3.97b
Encoding settings : -m j -V 4 -q 2 -lowpass 18.6 --abr 192

Скриншоты





Последний раз редактировалось: Зануда (2012-01-12 09:03), всего редактировалось 6 раз(а)

Создавать темы 07-Янв-2012 01:58

[Профиль]  [ЛС] 

tobi

Стаж: 6 лет 1 месяц

Сообщений: 33

Симпатии: 2

Раздайте на полную, пожалуйста, быстренько закачаю, встану на раздачу потом.
Спасибо заранее.

Создавать темы 28-Мар-2013 13:10

[Профиль]  [ЛС] 

bik

Стаж: 5 лет 7 месяцев

Сообщений: 7

дайте скорость у меня 0,8 осталось!

Создавать темы 04-Июн-2013 18:59

[Профиль]  [ЛС] 

stress

Стаж: 4 года 11 месяцев

Сообщений: 5

Симпатии: 1

пожалуйста дайте скорости!!

Создавать темы 05-Авг-2013 01:04

[Профиль]  [ЛС] 

Abdurauf

Стаж: 5 лет 7 месяцев

Сообщений: 7

пожалуйста дайте скорост

Создавать темы 13-Авг-2013 09:36

[Профиль]  [ЛС] 

shahz

Стаж: 5 лет 6 месяцев

Сообщений: 192

Симпатии: 9

brigada_1.avi 699.25 MB
brigada_2.avi 700.58 MB
brigada_3.avi 700.21 MB
brigada_4.avi 702.01 MB
brigada_5.avi 701.50 MB
brigada_6.avi 701.55 MB
brigada_7.avi 700.84 MB
brigada_8.avi 701.47 MB
brigada_9.avi 700.59 MB
brigada_10.avi 701.49 MB
brigada_11.avi 700.84 MB
brigada_12.avi 701.03 MB
brigada_13.avi 699.35 MB
brigada_14.avi 701.08 MB
brigada_15.avi 700.47 MB
Всё скачано с киномана. Но там не добавляют Satrip. Странно.
Сам щас оттуда качаю. Как скачаю, присоединюсь к раздаче. Сериал очень интересный. Можно сказать шедевр русской кинематографии.

Создавать темы 17-Авг-2013 20:23

[Профиль]  [ЛС] 

Pretender

Стаж: 6 лет 7 месяцев

Сообщений: 69

Симпатии: 1

brigada_1.avi 699.25 MB
brigada_2.avi 700.58 MB
brigada_3.avi 700.21 MB
brigada_4.avi 702.01 MB
brigada_5.avi 701.50 MB
brigada_6.avi 701.55 MB
brigada_7.avi 700.84 MB
brigada_8.avi 701.47 MB
brigada_9.avi 700.59 MB
brigada_10.avi 701.49 MB
brigada_11.avi 700.84 MB
brigada_12.avi 701.03 MB
brigada_13.avi 699.35 MB
brigada_14.avi 701.08 MB
brigada_15.avi 700.47 MB
Всё скачано с киномана. Но там не добавляют Satrip. Странно.
Сам щас оттуда качаю. Как скачаю, присоединюсь к раздаче. Сериал очень интересный. Можно сказать шедевр русской кинематографии.
ты это безрукову скажи=)

Создавать темы 17-Авг-2013 20:30

[Профиль]  [ЛС] 

holik

Стаж: 4 года 7 месяцев

Сообщений: 18

Симпатии: 2

скорость плиззззззззззз

Создавать темы 19-Авг-2013 07:37

[Профиль]  [ЛС] 

holik

Стаж: 4 года 7 месяцев

Сообщений: 18

Симпатии: 2

скорость плиззззззззззз

Создавать темы 30-Сен-2013 11:40

[Профиль]  [ЛС] 

holik

Стаж: 4 года 7 месяцев

Сообщений: 18

Симпатии: 2

скорость плиззззззззззз!!!!!!!!!!!!!!!!

Создавать темы 30-Сен-2013 11:41

[Профиль]  [ЛС] 

holik

Стаж: 4 года 7 месяцев

Сообщений: 18

Симпатии: 2

пожалуйста дайте скорост

Создавать темы 30-Сен-2013 11:41

[Профиль]  [ЛС] 

holik

Стаж: 4 года 7 месяцев

Сообщений: 18

Симпатии: 2

Раздайте на полную, пожалуйста, быстренько закачаю, встану на раздачу потом.
Спасибо заранее.

Создавать темы 02-Окт-2013 13:49

[Профиль]  [ЛС] 

holik

Стаж: 4 года 7 месяцев

Сообщений: 18

Симпатии: 2

Раздайте на полную, пожалуйста, быстренько закачаю, встану на раздачу потом.
Спасибо заранее.

Создавать темы 04-Окт-2013 14:08

[Профиль]  [ЛС] 

mrpanda

Стаж: 3 года 10 месяцев

Сообщений: 3

Симпатии: 3

дайте скорость

Создавать темы 10-Окт-2013 19:27

[Профиль]  [ЛС] 

OKTAMBEK

Стаж: 6 лет 6 месяцев

Сообщений: 23

дайте скорость

Создавать темы 12-Окт-2013 20:34

[Профиль]  [ЛС] 
Показать сообщения:    
Ответить на тему

Текущее время: 24-Авг 04:23

Часовой пояс: UTC + 5



Вы не можете начинать темы
Вы не можете отвечать на сообщения
Вы не можете редактировать свои сообщения
Вы не можете удалять свои сообщения
Вы не можете голосовать в опросах
Вы не можете прикреплять файлы к сообщениям
Вы не можете скачивать файлы