Шпион, выйди вон! / Tinker Tailor Soldier Spy (Томас Альфредсон) [2011 г., триллер, детектив, DVDRip] [лицензия]

Ответить на тему
 

ziyod ®

Стаж: 7 лет 6 месяцев

Сообщений: 367

Симпатии: 60

Шпион, выйди вон!
Tinker Tailor Soldier Spy
-«Секретная информация будет раскрыта»
-Информация о фильме:
Год выпуска: 2011
Страна: Германия / Франция / Великобритания, Studio Canal
Жанр: триллер, детектив
Продолжительность: 02:02:08
Перевод: Профессиональный (полное дублирование) [лицензия]
Режиссер: Томас Альфредсон-В ролях: Гари Олдман, Колин Фёрт, Том Харди, Джон Хёрт, Тоби Джонс, Марк Стронг, Бенедикт Камбербэтч, Кьяран Хайндс, Константин Хабенский, Светлана Ходченкова-Описание: Многие сотрудники британской разведки догадывались, что в ее руководстве давно засел «крот», работающий на Россию. Но те, кто отваживался об этом заявлять открыто, почему-то оказывались в отставке. Остальные предпочитали помалкивать. Но подтверждение существования русского агента пришло с совсем неожиданной стороны. Начинается тайное расследование, возглавляемое находящимся в отставке Джорджем Смайли. И никто, включая высшее руководство разведки, не должен догадаться, что на крота снова объявлена охота.-Рейтинг:
-

Знаете ли вы, что...

- Том Харди был утвержден на роль Рикки Тарра совершенно случайно. Продюсер фильма Тим Беван заявил,
что актёр напоминает ему молодого Роберта Рэдфорда.
- Чтобы подготовиться к роли Джорджа Смайли, Гэри Олдмен ел много патоки и заварного крема, чтоб отрастить
«небольшой живот, как у людей пожилого возраста», наблюдал за игрой Алека Гиннесса в телесериале 1979
года, а также общался с «создателем» Смайли — Джоном Ле Карре.
- Одним из первых кандидатов на роль Смайли был Джон Хёрт. Позже ему была отдана роль Контролёра.
- Чтобы выбрать очки Джорджа Смайли, Олдмен посетил магазин Old Focals в Пасадене, где он померил сотни
пар оправ, прежде чем нашел нужную.
- На ранних стадиях подготовки к съёмкам, переговоры с кинокомпанией вел Дэвид Тьюлис.
- В фильме должен был сниматься Майкл Фассбендер, но в результате был заменен Томом Харди.
- В оригинале фильм называется «Лудильщик, портной, солдат, шпион» (Tinker Tailor Soldier Spy). Это слова
детской считалки, профессии из нее в фильме являются кодовыми именами главных героев.
- Роман Джона Ле Карре «Шпион, выйди вон!» уже экранизировался в 1979 году в виде телевизионного мини-
сериала. Джорджа Смайли сыграл Алек Гиннесс.
-Файл:
Качество: DVDRip
Формат: AVI
Видео кодек: XviD
Аудио кодек: AC3
Видео: 1753 Кбит/с, 720x304
Аудио 1: АС3, 6 ch, 384 Кбит/с
Аудио 2: АС3, 6 ch, 384 Кбит/с-

MI

General
Complete name                            : Shpion.vyjdi.von.2011.XviD.DVDRip.avi
Format                                   : AVI
Format/Info                              : Audio Video Interleave
Format profile                           : OpenDML
File size                                : 2.16 GiB
Duration                                 : 2h 2mn
Overall bit rate                         : 2 528 Kbps
Writing application                      : VirtualDubMod 1.5.10.3 | www.virtualdub-fr.org || (build 2550/release)
Writing library                          : VirtualDubMod build 2550/release
Video
ID                                       : 0
Format                                   : MPEG-4 Visual
Format profile                           : Advanced [email protected]
Format settings, BVOP                    : 2
Format settings, QPel                    : No
Format settings, GMC                     : No warppoints
Format settings, Matrix                  : Default (MPEG)
Muxing mode                              : Packed bitstream
Codec ID                                 : XVID
Codec ID/Hint                            : XviD
Duration                                 : 2h 2mn
Bit rate                                 : 1 742 Kbps
Width                                    : 720 pixels
Height                                   : 304 pixels
Display aspect ratio                     : 2.35:1
Frame rate                               : 25.000 fps
Color space                              : YUV
Chroma subsampling                       : 4:2:0
Bit depth                                : 8 bits
Scan type                                : Progressive
Compression mode                         : Lossy
Bits/(Pixel*Frame)                       : 0.318
Stream size                              : 1.49 GiB (69%)
Writing library                          : XviD 64
Audio #1
ID                                       : 1
Format                                   : AC-3
Format/Info                              : Audio Coding 3
Mode extension                           : CM (complete main)
Codec ID                                 : 2000
Duration                                 : 2h 2mn
Bit rate mode                            : Constant
Bit rate                                 : 384 Kbps
Channel(s)                               : 6 channels
Channel positions                        : Front: L C R, Side: L R, LFE
Sampling rate                            : 48.0 KHz
Bit depth                                : 16 bits
Compression mode                         : Lossy
Stream size                              : 335 MiB (15%)
Alignment                                : Split accross interleaves
Interleave, duration                     : 40 ms (1.00 video frame)
Interleave, preload duration             : 500 ms
Audio #2
ID                                       : 2
Format                                   : AC-3
Format/Info                              : Audio Coding 3
Mode extension                           : CM (complete main)
Codec ID                                 : 2000
Duration                                 : 2h 2mn
Bit rate mode                            : Constant
Bit rate                                 : 384 Kbps
Channel(s)                               : 6 channels
Channel positions                        : Front: L C R, Side: L R, LFE
Sampling rate                            : 48.0 KHz
Bit depth                                : 16 bits
Compression mode                         : Lossy
Stream size                              : 335 MiB (15%)
Alignment                                : Split accross interleaves
Interleave, duration                     : 40 ms (1.00 video frame)
Interleave, preload duration             : 500 ms
-

Скриншоты






Последний раз редактировалось: ziyod (2012-02-09 06:31), всего редактировалось 1 раз

Создавать темы 07-Янв-2012 08:56

[Профиль]  [ЛС] 

blackunit

Стаж: 7 лет 3 месяца

Сообщений: 99

Симпатии: 1

Спасибо за фильм.
Чет картинка не нравится, то ли ей контраста не хватает, то ли цветов ???

Создавать темы 07-Янв-2012 12:50

[Профиль]  [ЛС] 

eminem33634

Стаж: 6 лет 2 месяца

Сообщений: 56

Полного источника не было: Никогда - это глюк? или так оно и есть?

Создавать темы 07-Янв-2012 22:09

[Профиль]  [ЛС] 

tormentedsoul1

Стаж: 5 лет 8 месяцев

Сообщений: 4

Полного источника не было: Никогда - это глюк? или так оно и есть?
это не глюк, у меня тоже так написано! если хотите зарелизю этот фильм!

Создавать темы 08-Янв-2012 00:07

[Профиль]  [ЛС] 

nadezcda

Стаж: 6 лет 10 месяцев

Сообщений: 454

Симпатии: 303

Это глюк. Раздача идет.

Создавать темы 08-Янв-2012 00:19

[Профиль]  [ЛС] 

kafmar

Стаж: 6 лет 7 месяцев

Сообщений: 28

кто посмотрел, отпишите как фильм?

Создавать темы 10-Янв-2012 18:38

[Профиль]  [ЛС] 

thalamix

Стаж: 8 лет 2 месяца

Сообщений: 27

не показывает :(

Создавать темы 14-Янв-2012 22:59

[Профиль]  [ЛС] 

Honda

Стаж: 6 лет 10 месяцев

Сообщений: 93

Симпатии: 1

По трейлеру весьма интересный (как всегда) а так не очень...

Создавать темы 15-Янв-2012 12:51

[Профиль]  [ЛС] 

xshom

Стаж: 5 лет 8 месяцев

Сообщений: 6

кто посмотрел, отпишите как фильм?
Фильм очень интересен, динамики мало, так что, те, кто ждет погони, взрывов вертолетов лучше не смотреть :) Своего рода интеллектуальный боевичок :) Гари Олдман сыграл своего героя просто на пять!

Создавать темы 21-Янв-2012 12:34

[Профиль]  [ЛС] 

uni2467197

Стаж: 5 лет 8 месяцев

Сообщений: 1

Спасибо

Создавать темы 25-Янв-2012 23:11

[Профиль]  [ЛС] 

Сулейман

Стаж: 7 лет 1 месяц

Сообщений: 122

Фильм отличный,но с пивком не посмотреть,надо в тихой обстановке дома,вот тогда норма=) спасибо Зиёд.

Создавать темы 28-Янв-2012 23:16

[Профиль]  [ЛС] 

Huey Freeman

Стаж: 5 лет 8 месяцев

Сообщений: 23

Симпатии: 1

...


Последний раз редактировалось: Huey Freeman (2017-03-26 11:06), всего редактировалось 1 раз

Создавать темы 04-Фев-2012 00:53

[Профиль]  [ЛС] 

vadim-mark

Стаж: 5 лет 8 месяцев

Сообщений: 46

Симпатии: 2

Шпионский триллер, один из тех случаев, когда фильм дорогой, а спецэффектов нету, все усилия идут на игру актёров и драматическую составляющую, это очень хороший вариант, люблю такие фильмы.

Создавать темы 05-Фев-2012 19:46

[Профиль]  [ЛС] 
Показать сообщения:    
Ответить на тему

Текущее время: 22-Сен 04:06

Часовой пояс: UTC + 5



Вы не можете начинать темы
Вы не можете отвечать на сообщения
Вы не можете редактировать свои сообщения
Вы не можете удалять свои сообщения
Вы не можете голосовать в опросах
Вы не можете прикреплять файлы к сообщениям
Вы не можете скачивать файлы