Терминатор 2: Два брата терминавта или День подводника / Terminator 2: Judgment Day (Джеймс Кэмерон) [1991 г., Фантастика, Боевик, Триллер, HDRip] Перевод от "Держиморда Филмс"

Ответить на тему
 

Mr_ALo ®

Стаж: 8 лет

Сообщений: 367

Симпатии: 20

Терминатор 2: Два брата терминавта или День подводника / Terminator 2: Judgment Day Год выпуска: 1991
Страна: Россия (США, Франция)
Жанр: Смешной перевод (Фантастика, Боевик, Триллер)
Продолжительность: 02:17:20
Перевод: Любительский (одноголосый) студия "Держиморда Филмс"
Режиссер: Джеймс Кэмерон
В ролях: Арнольд Шварценеггер, Линда Хэмилтон, Эдвард Ферлонг, Роберт Патрик, Эрл Боэн, Джо Мортон, С. Эпата Меркерсон, Кастуло Герра, Дэнни Кукси, Дженетт Голдстин
Описание: Снова встает белое солнце пустыни Невада над беспокойными просторами Лос Анджелеса.. Заметно повзрослевший, но еще безусый юнец Жора Корнефф – плод недолгого но бурного романа официантки Сары Корнефф с таинственным неформалом из будущего – произрастает в чуждой ему идеологической обстановке, в семье пьяниц и попсовиков.
Напару с приятелем Жора проводит досуг, изучая материалы журнала “xakep”, немедленно применяя знания на практике. С ужасом и восторженным отвращением приоткрывает Жора мутные страницы своего туманного детства: безотцовщина, трущобы Кейптауна, и вездесущее зомбированное население. Утомленная отсутствием грубой мужской ласки Сара Корнефф пускается на отчаянные поступки в поисках собственной судьбы.
Рассказ Сыра о якобы славной карьере военачальника, уготованной для ее сына Жоры, заронила горькую искру шизофрении в измученное материнское сердце. Решив ускорить события, Сара становится на тропу войны и отваживается на рискованные фармакологические эксперименты, скупая по аптекам глюконат кальция и пытаясь найти формулу превращения его в легендарный “терминат кальция” – вещество, превращающее костную ткань в титановый сплав.
Медицина - великая вещь, особенно фармацевтика. Остеопороз - бич человечества - повержен с помощью термината кальция - волшебного препарата, превращающего трухлявые кости в мощный титановый скелет. Но передоз привёл к страшным последствиям. Два брата-терминавта Вован и Сашок совсем свинтили. Сашок полетел в прошлое прикончить Жору Корнева, сына подводницы Сары, пока тот ещё мал и не успел поставить ограничители на всех терминавтов. Вован поспешил вслед выручать Жору...
Терминатор: Чугунное рыло
Терминатор 3: Восстание нацистов
Качество: HDRip - рип с BDRip 720p
Формат: AVI
Видео: XviD 720x304 23.976 fps, 1 186 Kbps
Аудио: AC3 48.0 KHz 6 channel, 320 Kbps

MediaInfo

General
Complete name : I:\Films\Терминатор 2 Два брата терминавта или день подводника 1991 HDRip.avi
Format : AVI
Format/Info : Audio Video Interleave
File size : 1.45 GiB
Duration : 2h 17mn
Overall bit rate : 1 515 Kbps
Writing application : VirtualDubMod 1.5.10.2 (build 2542/release)
Writing library : VirtualDubMod build 2542/release
Video
ID : 0
Format : MPEG-4 Visual
Format profile : Advanced [email protected]
Format settings, BVOP : 2
Format settings, QPel : No
Format settings, GMC : No warppoints
Format settings, Matrix : Custom
Muxing mode : Packed bitstream
Codec ID : XVID
Codec ID/Hint : XviD
Duration : 2h 17mn
Bit rate : 1 186 Kbps
Width : 720 pixels
Height : 304 pixels
Display aspect ratio : 2.35:1
Frame rate : 23.976 fps
Color space : YUV
Chroma subsampling : 4:2:0
Bit depth : 8 bits
Scan type : Progressive
Compression mode : Lossy
Bits/(Pixel*Frame) : 0.226
Stream size : 1.14 GiB (78%)
Writing library : XviD 1.2.1 (UTC 2008-12-04)
Audio
ID : 1
Format : AC-3
Format/Info : Audio Coding 3
Mode extension : CM (complete main)
Codec ID : 2000
Duration : 2h 17mn
Bit rate mode : Constant
Bit rate : 320 Kbps
Channel(s) : 6 channels
Channel positions : Front: L C R, Side: L R, LFE
Sampling rate : 48.0 KHz
Bit depth : 16 bits
Compression mode : Lossy
Stream size : 314 MiB (21%)
Alignment : Split accross interleaves
Interleave, duration : 42 ms (1.00 video frame)
Interleave, preload duration : 500 ms

Скриншоты





Последний раз редактировалось: Mr_ALo (2012-01-11 00:42), всего редактировалось 1 раз

Создавать темы 09-Янв-2012 16:42

[Профиль]  [ЛС] 

Уша

Стаж: 7 лет 4 месяца

Сообщений: 92

Симпатии: 1

супер качаем

Создавать темы 09-Янв-2012 18:24

[Профиль]  [ЛС] 

shadow91

Стаж: 6 лет 8 месяцев

Сообщений: 60

СПАСИБО БОЛЬШОЕ ) ОЧЕНЬ ДАВНО ИСКАЛ

Создавать темы 09-Янв-2012 18:40

[Профиль]  [ЛС] 

Mr_ALo ®

Стаж: 8 лет

Сообщений: 367

Симпатии: 20

Ixtiyor Avazov, с начало читай правила трекера
2. Ограничения на форуме.
2.11. Использовать в общении на форуме язык, отличный от русского, и шрифт, отличный от кириллического.
по ссылке иди >>>FAQ По Всему Трекеру [ Основы Понятия Скачка Раздача и т.д ]<<<

Создавать темы 09-Янв-2012 18:52

[Профиль]  [ЛС] 

Corby

Стаж: 7 лет

Сообщений: 83

В переводе есть мат??

Создавать темы 26-Янв-2012 18:13

[Профиль]  [ЛС] 

maryam

Стаж: 5 лет 11 месяцев

Сообщений: 18

скорости

Создавать темы 20-Мар-2012 16:24

[Профиль]  [ЛС] 

nikoni

Стаж: 5 лет 7 месяцев

Сообщений: 3

мало скорости. Дайте скорости.

Создавать темы 05-Фев-2013 22:47

[Профиль]  [ЛС] 

nyted

Стаж: 5 лет 8 месяцев

Сообщений: 33

Симпатии: 9

Качайте люди,я раздаю

Создавать темы 03-Дек-2013 17:24

[Профиль]  [ЛС] 

SkoroXod

Стаж: 2 года 3 месяца

Сообщений: 99

Симпатии: 78

Прикольный фильм. Посмотреть на один раз можно. Особенно когда хочется послушать альтернативную озвучку. К сожалению в озвучке в нескольких местах присутствует мат.

Создавать темы 02-Окт-2015 10:45

[Профиль]  [ЛС] 
Показать сообщения:    
Ответить на тему

Текущее время: 16-Дек 04:27

Часовой пояс: UTC + 5



Вы не можете начинать темы
Вы не можете отвечать на сообщения
Вы не можете редактировать свои сообщения
Вы не можете удалять свои сообщения
Вы не можете голосовать в опросах
Вы не можете прикреплять файлы к сообщениям
Вы не можете скачивать файлы