Терминатор 3: Восстание нацистов/ Terminator 3: Rise of the Machines (Джонатан Мостоу) [2003 г., Фантастика, Боевик, Триллер, HDRip] Перевод от "Держиморда Филмс"

Ответить на тему
 

Mr_ALo ®

Стаж: 8 лет

Сообщений: 367

Симпатии: 20

Терминатор 3: Восстание нацистов/ Terminator 3: Rise of the Machines Год выпуска: 2003
Страна: Россия (США, Германия, Великобритания)
Жанр: Смешной перевод (Фантастика, Боевик, Триллер)
Продолжительность: 1:49:06
Перевод: Любительский (одноголосый) студия "Держиморда Филмс"
Режиссер: Джонатан Мостоу
В ролях: Арнольд Шварценеггер, Ник Стал, Клэр Дэйнс, Кристанна Локен, Дэвид Эндрюс, Марк Фамиглетти, Эрл Боэн, Мойра Харрис, Чоппер Бернет, Кристофер Лоуфорд
Описание: Удушливым облаком поднимается пыль веков над жителями окрестностей Лос Анджелеса, потревоженная безответственными действиями несознательного наркомана Жоры Корнева, влачащего жалкое подобие существования в городских клоаках. Вследствие неумелого обращения с технологиями будущего, мостовые города сотрясаются под ударами кованых сапог нацистской сволочи: эсэсовки Бригитты Грохман и врача-некропедиатра Йогана Шмурге, печально известного по материалам Нюрнбергского процесса.
В ошеломительной схватке решается судьба розовощекой Кати Брусникиной, дочери генерального директора компании “Касперский Лабораториз” – закрытого предприятия, разрабатывающего новейшие программные продукты вооружения.
Терминатор: Чугунное рыло
Терминатор 2: Два брата терминавта или День подводника
Качество: HDRip
Формат: AVI
Видео: XviD 704x228 23.976 fps, 1 687 Kbps
Аудио: AC3 48.0 KHz 6 channel, 224 Kbps

MediaInfo

General
Complete name : I:\Films\Терминатор 3 - Восстание нацистов 2003 HDRip.avi
Format : AVI
Format/Info : Audio Video Interleave
File size : 1.45 GiB
Duration : 1h 49mn
Overall bit rate : 1 908 Kbps
Genre : Humor
Writing application : VirtualDubMod 1.5.10.2 (build 2542/release)
Original source form/Name : Movie
Comment : HDRip by KAE
Video
ID : 0
Format : MPEG-4 Visual
Format profile : Advanced [email protected]
Format settings, BVOP : 1
Format settings, QPel : No
Format settings, GMC : No warppoints
Format settings, Matrix : Custom
Codec ID : XVID
Codec ID/Hint : XviD
Duration : 1h 49mn
Bit rate : 1 687 Kbps
Width : 704 pixels
Height : 288 pixels
Display aspect ratio : 2.40:1
Frame rate : 23.976 fps
Color space : YUV
Chroma subsampling : 4:2:0
Bit depth : 8 bits
Scan type : Progressive
Compression mode : Lossy
Bits/(Pixel*Frame) : 0.347
Stream size : 1.29 GiB (88%)
Writing library : XviD 1.2.1 (UTC 2008-12-04)
Audio
ID : 1
Format : AC-3
Format/Info : Audio Coding 3
Mode extension : CM (complete main)
Codec ID : 2000
Duration : 1h 43mn
Bit rate mode : Constant
Bit rate : 224 Kbps
Channel(s) : 6 channels
Channel positions : Front: L C R, Side: L R, LFE
Sampling rate : 48.0 KHz
Bit depth : 16 bits
Compression mode : Lossy
Delay relative to video : 6s 500ms
Stream size : 166 MiB (11%)
Alignment : Split accross interleaves
Interleave, duration : 44 ms (1.05 video frame)
Interleave, preload duration : 500 ms

Скриншоты





Последний раз редактировалось: Mr_ALo (2012-01-11 00:42), всего редактировалось 1 раз

Создавать темы 09-Янв-2012 17:00

[Профиль]  [ЛС] 

Уша

Стаж: 7 лет 4 месяца

Сообщений: 92

Симпатии: 1

это тоже качаем

Создавать темы 09-Янв-2012 18:24

[Профиль]  [ЛС] 

Gaming

Стаж: 5 лет 9 месяцев

Сообщений: 1

я бы скачал но нету раздачи : (

Создавать темы 23-Апр-2012 12:57

[Профиль]  [ЛС] 

SAN4ES

Стаж: 5 лет 2 месяца

Сообщений: 19

Mr_ALo, скорость хуже черепахи.....3 месяца качаю 85 %.....че за .... . дай скорости........

Создавать темы 06-Фев-2013 15:44

[Профиль]  [ЛС] 

SAN4ES

Стаж: 5 лет 2 месяца

Сообщений: 19

99,9% дайте скорости..........................АУУУУ.....народ вернитесь на раздачу.........

Создавать темы 09-Фев-2013 10:09

[Профиль]  [ЛС] 

voody

Стаж: 4 года 10 месяцев

Сообщений: 41

дайте раздачу

Создавать темы 10-Мар-2013 18:30

[Профиль]  [ЛС] 

ovsepyan

Стаж: 4 года 9 месяцев

Сообщений: 1

так и не понял. где... как, качать??????
подскажите люди добрые.

Создавать темы 10-Мар-2013 19:46

[Профиль]  [ЛС] 

SkoroXod

Стаж: 2 года 3 месяца

Сообщений: 99

Симпатии: 78

Спасибо. Прикольная озвучка.

Создавать темы 08-Окт-2015 12:49

[Профиль]  [ЛС] 
Показать сообщения:    
Ответить на тему

Текущее время: 16-Дек 13:58

Часовой пояс: UTC + 5



Вы не можете начинать темы
Вы не можете отвечать на сообщения
Вы не можете редактировать свои сообщения
Вы не можете удалять свои сообщения
Вы не можете голосовать в опросах
Вы не можете прикреплять файлы к сообщениям
Вы не можете скачивать файлы