Живая сталь / Real Steel (Шон Леви) [2011 г., Фантастика, боевик, семейный, HDRip]

Ответить на тему
 

muradovms ®

Стаж: 5 лет 8 месяцев

Сообщений: 6

Живая сталь / Real Steel- Год выпуска: 2011
Страна: США / Индия, DreamWorks SKG
Жанр: Фантастика, боевик, семейный
Продолжительность: 02:06:51
Перевод: Дублированный + Оригинальная дорожка [Чистый звук]
Режиссер: Шон Леви
Продюсера фильма: Роберт Земекис-В ролях: Хью Джекман, Дакота Гойо, Эванджелин Лилли, Энтони Маки, Кевин Дюран, Хоуп Дэвис, Джеймс Ребхорн, Марко Руджери, Карл Йун, Ольга Фонда
Дата мировой премьеры: 6 сентября 2011
Дата российской премьеры: 6 октября 2011, «WDSSPR»
Дата выхода DVD релиза: 7 февраля 2012, «Уолт Дисней Компани СНГ»-Описание: События фильма происходят в будущем, где бокс запрещен за негуманностью и заменен боями 2000-фунтовых роботов, управляемых людьми. Бывший боксер, а теперь промоутер, переметнувшийся в Робобокс, решает, что наконец нашел своего чемпиона, когда ему попадается выбракованный, но очень способный робот. Одновременно на жизненном пути героя возникает 11-летний пацан, оказывающийся его сыном. И по мере того, как машина пробивает свой путь к вершине, обретшие друг друга отец и сын учатся дружить.
Знаете ли вы, что...
• На рекламных щитах во время главного боя показана реклама Xbox 720.
• При первой встрече, герой Кевина Дюрана говорит герою Джекмена, что в прошлый раз побил его на ринге. Этот эпизод, отсылка к фильму 'Люди Икс: Начало. Росомаха', в котором герои Дюрана и Джекмена тоже встречались на ринге.
• Для фильма были созданы настоящие человекоподобные роботы, чтобы с технологией захвата движения корректно отобразить пластику движущихся механизмов. Всего было сделано 19 роботов.
• Прототипом робота Зевса послужил Джек из серии игр Tekken. Схож не только облик, но и удары, которые использует Зевс в финальной битве.
• На пульте робота Нойзи Бой показан логотип компании Hewlett-Packard.
• На табличках, выносимых девушками между раундами, показан логотип компании Hewlett-Packard.
Качество: HDRip
Формат: MKV
Видео кодек: MPEG-4 AVC/H.264
Битрейт видео: ~1884 Кбит/сек
Видео: 1016x432
Аудио #1: Английский, AC3, 2 ch., 48 kHz, ~192.00 Кбит/сек | Оригинальная звуковая дорожка
Аудио #2: Русский, AC3, 6 ch., 48 kHz, ~384.00 Кбит/сек | Дублированный [чистый звук]
Язык субтитров: Russian [Voronine], Russian [Voronine, Witcher], English
Вид субтитров: Вшитые

МедиаИнфо

General
Unique ID : 216458862081881680803125572077019494933 (0xA2D875DE290E395ABC6CCB74E5207A15)
Complete name : H:\ZHIIVAYA STAL - REAL STEEL.mkv
Format : Matroska
Format version : Version 2
File size : 2.18 GiB
Duration : 2h 6mn
Overall bit rate : 2 461 Kbps
Movie name : -Liones-
Encoded date : UTC 2012-01-11 17:04:45
Writing application : mkvmerge v4.5.0 ('Speed of Light') сборка от Feb 1 2011 02:10:32
Writing library : libebml v1.2.0 + libmatroska v1.1.0
Video
ID : 1
Format : AVC
Format/Info : Advanced Video Codec
Format profile : [email protected]
Format settings, CABAC : Yes
Format settings, ReFrames : 12 frames
Muxing mode : Header stripping
Codec ID : V_MPEG4/ISO/AVC
Duration : 2h 6mn
Bit rate : 1 884 Kbps
Width : 1 016 pixels
Height : 432 pixels
Display aspect ratio : 2.35:1
Frame rate mode : Variable
Frame rate : 23.976 fps
Color space : YUV
Chroma subsampling : 4:2:0
Bit depth : 8 bits
Scan type : Progressive
Bits/(Pixel*Frame) : 0.179
Stream size : 1.63 GiB (75%)
Title : Zhivaya.Stal.2011.Dt+L1.HDRip.x264.potroks
Writing library : x264 core 116 r2019M 9cc407d
Encoding settings : cabac=1 / ref=13 / deblock=1:-3:-3 / analyse=0x3:0x133 / me=umh / subme=9 / psy=1 / psy_rd=1.00:0.20 / mixed_ref=1 / me_range=48 / chroma_me=1 / trellis=1 / 8x8dct=1 / cqm=0 / deadzone=21,11 / fast_pskip=0 / chroma_qp_offset=-3 / threads=8 / sliced_threads=0 / nr=0 / decimate=1 / interlaced=0 / bluray_compat=0 / constrained_intra=0 / bframes=10 / b_pyramid=1 / b_adapt=2 / b_bias=0 / direct=3 / weightb=1 / open_gop=0 / weightp=2 / keyint=230 / keyint_min=23 / scenecut=40 / intra_refresh=0 / rc_lookahead=40 / rc=2pass / mbtree=1 / bitrate=1884 / ratetol=1.0 / qcomp=0.60 / qpmin=10 / qpmax=51 / qpstep=4 / cplxblur=20.0 / qblur=0.5 / ip_ratio=1.37 / aq=1:1.20
Language : English
Audio #1
ID : 2
Format : AC-3
Format/Info : Audio Coding 3
Mode extension : CM (complete main)
Muxing mode : Header stripping
Codec ID : A_AC3
Duration : 2h 6mn
Bit rate mode : Constant
Bit rate : 192 Kbps
Channel(s) : 2 channels
Channel positions : Front: L R
Sampling rate : 48.0 KHz
Bit depth : 16 bits
Compression mode : Lossy
Stream size : 174 MiB (8%)
Language : English
Audio #2
ID : 6
Format : AC-3
Format/Info : Audio Coding 3
Mode extension : CM (complete main)
Muxing mode : Header stripping
Codec ID : A_AC3
Duration : 2h 6mn
Bit rate mode : Constant
Bit rate : 384 Kbps
Channel(s) : 6 channels
Channel positions : Front: L C R, Side: L R, LFE
Sampling rate : 48.0 KHz
Bit depth : 16 bits
Compression mode : Lossy
Stream size : 348 MiB (16%)
Title : Dub-Rus
Language : Russian
Text #1
ID : 3
Format : UTF-8
Codec ID : S_TEXT/UTF8
Codec ID/Info : UTF-8 Plain Text
Title : Eng
Language : English
Text #2
ID : 4
Format : UTF-8
Codec ID : S_TEXT/UTF8
Codec ID/Info : UTF-8 Plain Text
Title : Rus v.1
Language : Russian
Text #3
ID : 5
Format : UTF-8
Codec ID : S_TEXT/UTF8
Codec ID/Info : UTF-8 Plain Text
Title : Rus v.2
Language : Russian

Скриншоты






Создавать темы 13-Янв-2012 07:40

[Профиль]  [ЛС] 

muradovms ®

Стаж: 5 лет 8 месяцев

Сообщений: 6

В обеде постараюсь раздават но с 20:00 до утра буду раздать

Создавать темы 13-Янв-2012 07:49

[Профиль]  [ЛС] 

Knyaz-TK

Стаж: 6 лет 3 месяца

Сообщений: 48

Шутите? ВDrip ?

Создавать темы 13-Янв-2012 08:18

[Профиль]  [ЛС] 

plast-n

Стаж: 5 лет 6 месяцев

Сообщений: 10

спасибо за фильм

Создавать темы 16-Мар-2012 07:26

[Профиль]  [ЛС] 

damik

Стаж: 6 лет 5 месяцев

Сообщений: 4

ооо класс

Создавать темы 20-Июн-2012 10:13

[Профиль]  [ЛС] 
Показать сообщения:    
Ответить на тему

Текущее время: 20-Сен 14:20

Часовой пояс: UTC + 5



Вы не можете начинать темы
Вы не можете отвечать на сообщения
Вы не можете редактировать свои сообщения
Вы не можете удалять свои сообщения
Вы не можете голосовать в опросах
Вы не можете прикреплять файлы к сообщениям
Вы не можете скачивать файлы