Война Богов: Бессмертные / Immortals (Тарсем Синх) [2011 г., фэнтези, боевик, драма, DVDRip] (Лицензия!)

Страницы :  1, 2, 3, 4, 5  След.

Ответить на тему
 

HooL1GaN ®

Стаж: 6 лет 7 месяцев

Сообщений: 4

Война Богов: Бессмертные / Immortals- Год выпуска: 2011
Выпущено: США, Universal Pictures, Relativity Media
Жанр: фэнтези, боевик, драма
Продолжительность: 01:45:57
Озвучивание: Дублированное [лицензия]
Режиссер: Тарсем Синх
В ролях: Генри Кавилл, Стивен Дорфф, Люк Эванс, Изабель Лукас, Келлан Латс, Фрида Пинто, Микки Рурк, Джон Хёрт, Джозеф Морган, Энн Дэй-Джонс
Описание: Одержимый жаждой власти царь Гиперион хочет уничтожить род людской и низвергнуть богов. С помощью Эпирского Лука, сделанного руками бога войны Ареса, он освобождает Титанов от тысячелетнего заточения в горах Тартара. Боги бессильны противостоять безумному царю. Единственная надежда на спасение — герой Тесей, который вступает в неравную войну с Титанами. Боги Олимпа во главе с самим Зевсом, пророчица Федра и хитрый раб Ставрос помогают герою в смертельной битве с демонами. Тесей должен победить, или боги Олимпа будут низвержены, а Эллада обречена на погибель…
IMDB рейтинг: 6.8/10 (16,180 голосов)
Кинопоиск рейтинг: 6.106 (5,430 голосов)
Формат: AVI
Качество: DVDRip
Видео: XVID 720x384, 1505 kb/s
Аудио: AC3, 448 kb/s (6 ch)
Размер: 1,45 GB
-

Медиа инфо

Video
ID                               : 0
Format                           : MPEG-4 Visual
Format profile                   : Advanced [email protected]
Format settings, BVOP            : 2
Format settings, QPel            : No
Format settings, GMC             : No warppoints
Format settings, Matrix          : Default (MPEG)
Muxing mode                      : Packed bitstream
Codec ID                         : XVID
Codec ID/Hint                    : XviD
Duration                         : 1h 45mn
Bit rate                         : 1 506 Kbps
Width                            : 720 pixels
Height                           : 384 pixels
Display aspect ratio             : 1.875
Frame rate                       : 25.000 fps
Color space                      : YUV
Chroma subsampling               : 4:2:0
Bit depth                        : 8 bits
Scan type                        : Progressive
Compression mode                 : Lossy
Bits/(Pixel*Frame)               : 0.218
Stream size                      : 1.11 GiB (77%)
Writing library                  : XviD 64
Audio
ID                               : 1
Format                           : AC-3
Format/Info                      : Audio Coding 3
Mode extension                   : CM (complete main)
Codec ID                         : 2000
Duration                         : 1h 45mn
Bit rate mode                    : Constant
Bit rate                         : 448 Kbps
Channel(s)                       : 6 channels
Channel positions                : Front: L C R, Side: L R, LFE
Sampling rate                    : 48.0 KHz
Bit depth                        : 16 bits
Compression mode                 : Lossy
Stream size                      : 340 MiB (23%)
Alignment                        : Split accross interleaves
Interleave, duration             : 40 ms (1.00 video frame)
Interleave, preload duration     : 500 ms

Скриншоты

-


Последний раз редактировалось: HooL1GaN (2012-01-14 09:30), всего редактировалось 1 раз

Создавать темы 14-Янв-2012 03:10

[Профиль]  [ЛС] 

FissleR

Стаж: 6 лет 6 месяцев

Сообщений: 94

стоит вообще качать? отпишитесь

Создавать темы 14-Янв-2012 03:43

[Профиль]  [ЛС] 

Mixer City

Стаж: 6 лет 11 месяцев

Сообщений: 754

Симпатии: 63

HooL1GaN, видео кодек допиши.


Последний раз редактировалось: Mixer City (2012-01-14 04:45), всего редактировалось 1 раз

Создавать темы 14-Янв-2012 04:19

[Профиль]  [ЛС] 

tridboy

Стаж: 7 лет 7 месяцев

Сообщений: 33

от этого фильма ожидал большего!!!
ЗЫ ходил на примъеру в 3d

Создавать темы 14-Янв-2012 04:42

[Профиль]  [ЛС] 

Sinema_uz

Стаж: 6 лет 11 месяцев

Сообщений: 303

Симпатии: 4

фильм проста класс!!!!!!

Создавать темы 14-Янв-2012 06:42

[Профиль]  [ЛС] 

Pendalf

Стаж: 6 лет 6 месяцев

Сообщений: 416

Симпатии: 34

Лучше подождать BD, ибо качество, мягко говоря, не ахти...

Создавать темы 14-Янв-2012 09:45

[Профиль]  [ЛС] 

rinat_usa

Стаж: 6 лет 8 месяцев

Сообщений: 22

Симпатии: 1

Качаем!!! Спасибо!

Создавать темы 14-Янв-2012 10:00

[Профиль]  [ЛС] 

pervorojdenniy

Стаж: 5 лет 11 месяцев

Сообщений: 22

Посмотрим, заценим, почему не очень? Вроде должно быть лучше прошлогодних экранок!
Народ, а что за глюк? Скорость 10 килобайт качает!

Создавать темы 14-Янв-2012 14:22

[Профиль]  [ЛС] 

zoka_2010

Стаж: 6 лет 1 месяц

Сообщений: 25

Симпатии: 2

Дайте скорость !!!

Создавать темы 14-Янв-2012 16:22

[Профиль]  [ЛС] 

DMiTRY

Стаж: 6 лет 7 месяцев

Сообщений: 649

Симпатии: 28

да и правда,скорость не ахти какая... качает еле-еле) скорость скачки очень 25-30кб

Создавать темы 14-Янв-2012 17:20

[Профиль]  [ЛС] 

Warhammer

Стаж: 7 лет 2 месяца

Сообщений: 21

Симпатии: 1

Стока ждал этот фильм, он оказался так себе на 1 раз!

Создавать темы 14-Янв-2012 17:43

[Профиль]  [ЛС] 

meelyor777

Стаж: 5 лет 11 месяцев

Сообщений: 5

на 1 раз, ничего особенного

Создавать темы 14-Янв-2012 18:20

[Профиль]  [ЛС] 

Emigrate

Стаж: 5 лет 11 месяцев

Сообщений: 110

Симпатии: 1

Оо уже лицуха спасиб большое

Создавать темы 14-Янв-2012 19:57

[Профиль]  [ЛС] 

shavkat8999

Стаж: 6 лет 10 месяцев

Сообщений: 108

Симпатии: 5

супер

Создавать темы 14-Янв-2012 19:57

[Профиль]  [ЛС] 

mal_ejik

Стаж: 6 лет 5 месяцев

Сообщений: 14

Стоит разок посмотреть ради последних 10 минут bs

Создавать темы 14-Янв-2012 20:44

[Профиль]  [ЛС] 
Показать сообщения:    
Ответить на тему

Текущее время: 18-Дек 17:55

Часовой пояс: UTC + 5



Вы не можете начинать темы
Вы не можете отвечать на сообщения
Вы не можете редактировать свои сообщения
Вы не можете удалять свои сообщения
Вы не можете голосовать в опросах
Вы не можете прикреплять файлы к сообщениям
Вы не можете скачивать файлы