Топ Гир: Путешествие по Индии / Top Gear: India Special (Phil Loads Of Poppadoms) [2011 г., Документальный, ток-шоу, комедия, HDTVRip]

Страницы :  1, 2  След.

Ответить на тему
 

Mixer City ®

Стаж: 6 лет 8 месяцев

Сообщений: 754

Симпатии: 63

-Топ Гир: Путешествие по Индии / Top Gear: India Special-Специальный выпуск | 28 декабря 2011 года-
Год выпуска :: 2011 | Жанр :: Документальный, ток-шоу, комедия | Продолжительность :: 01:28:20
Перевод :: Профессиональный (многоголосый, закадровый) | Озвучание :: Jetvis Studio | Канал :: BBC TWO и HD-Режиссер :: Phil Loads Of Poppadoms | В ролях :: Джереми Кларксон, Ричард Хаммонд, Джеймс Мэй-Описание выпуска :: Ведущие отправляются в Индию, чтобы наладить экономические отношения с этой страной. Для путешествия Джереми Кларксон покупает себе Jaguar XJS 1995 года, Ричард Хаммонд покупает Mini Cooper, а Джеймс Мэй — Rolls-Royce Silver Shadow 1976 года.-Качество :: HDTVRip | Формат :: FLV | Видео кодек :: AVC | Аудио кодек :: MP3
Видео :: 720х400, 25.000 fps, 599 Kbps | Аудио :: 2 channels, 44.1 KHz, 64.0 Kbps
-

Media Info

General
Complete name : G:\6 Сериалы\Top Gear\Top Gear India Special HDTVRip [Jetvis Studio].flv
Format : Flash Video
File size : 425 MiB
Duration : 1h 28mn
Overall bit rate : 672 Kbps
Tagged date : UTC 2012-01-12 20:43:58
Tagging application : GOM ENCODER (GFlv4Writer 1.0)
Video
Format : AVC
Format/Info : Advanced Video Codec
Format profile : [email protected]
Format settings, CABAC : Yes
Format settings, ReFrames : 1 frame
Codec ID : 7
Duration : 1h 28mn
Bit rate : 599 Kbps
Width : 720 pixels
Height : 400 pixels
Display aspect ratio : 16:9
Frame rate mode : Constant
Frame rate : 25.000 fps
Color space : YUV
Chroma subsampling : 4:2:0
Bit depth : 8 bits
Scan type : Progressive
Bits/(Pixel*Frame) : 0.083
Stream size : 378 MiB (89%)
Audio
Format : MPEG Audio
Format version : Version 1
Format profile : Layer 3
Mode : Joint stereo
Mode extension : MS Stereo
Codec ID : 2
Codec ID/Hint : MP3
Duration : 1h 28mn
Bit rate mode : Constant
Bit rate : 64.0 Kbps
Channel(s) : 2 channels
Sampling rate : 44.1 KHz
Compression mode : Lossy
Stream size : 40.4 MiB (10%)
-

Скриншоты





-


Последний раз редактировалось: Mixer City (2012-01-23 00:19), всего редактировалось 1 раз

Создавать темы 14-Янв-2012 19:52

[Профиль]  [ЛС] 

oneill22

Стаж: 6 лет 6 месяцев

Сообщений: 12

Mixer City, спс большое !!! а в этом году тольок 1 спешл будет или как тольок 1 перевели !!

Создавать темы 15-Янв-2012 00:12

[Профиль]  [ЛС] 

Mixer City ®

Стаж: 6 лет 8 месяцев

Сообщений: 754

Симпатии: 63

oneill22, через 15 дней начнётся показ 18-го сезона по BBC ONE и HD, на счёт специальных не в курсе.

Создавать темы 15-Янв-2012 00:34

[Профиль]  [ЛС] 

inviz

Стаж: 5 лет 9 месяцев

Сообщений: 153

Симпатии: 6

Плохо кодирован.

Создавать темы 15-Янв-2012 05:39

[Профиль]  [ЛС] 

oneill22

Стаж: 6 лет 6 месяцев

Сообщений: 12

Mixer City, всё посматрел будет тольок вот этот спешл ))) ждём на раздачи и скорости на 1 часок чтоб скачать !!!

Создавать темы 15-Янв-2012 11:36

[Профиль]  [ЛС] 

x6

Стаж: 6 лет 6 месяцев

Сообщений: 171

Симпатии: 3

Полноценный 18 сезон Top Gear стартует 29 января 2012
Тем временем спец-выпуск про Индию назначен на 28 декабря. Недавно Джереми Кларксон приходил в телевизор к коллегам из BBC One, где показали небольшой фрагмент из этого спец-выпуска

_________________
Подпись отключена за нарушение правил форума

Создавать темы 15-Янв-2012 12:08

[Профиль]  [ЛС] 

Mixer City ®

Стаж: 6 лет 8 месяцев

Сообщений: 754

Симпатии: 63

Плохо кодирован.
, что есть, то есть, не довольных - попрошу не качать и не писать зря, что качество не НD, все данные указаны, смотреть можно, всё видно и всё слышно.

Создавать темы 15-Янв-2012 15:19

[Профиль]  [ЛС] 

x6

Стаж: 6 лет 6 месяцев

Сообщений: 171

Симпатии: 3

кто может качните из мира, в HD тут 2,45гб

_________________
Подпись отключена за нарушение правил форума

Создавать темы 15-Янв-2012 18:56

[Профиль]  [ЛС] 

Mixer City ®

Стаж: 6 лет 8 месяцев

Сообщений: 754

Симпатии: 63

Если у вас на 20 и 30 минутах будет глюк, который сразу прокрутит к концу, вернитесь к той минуте и промотайте чуть вперёд, такой файл, что поделаешь.

Создавать темы 16-Янв-2012 01:31

[Профиль]  [ЛС] 

x6

Стаж: 6 лет 6 месяцев

Сообщений: 171

Симпатии: 3

я из кэша вытаскивал, файл норм бьыл, потом присоеденился сюда он начал докачивать с 96проц. потом в середине подвисать стало(((
сам виноват)

_________________
Подпись отключена за нарушение правил форума

Создавать темы 16-Янв-2012 10:39

[Профиль]  [ЛС] 

Mixer City ®

Стаж: 6 лет 8 месяцев

Сообщений: 754

Симпатии: 63

x6, да мне тоже дали файл, оказалось что так, 5 раз сбрасывает к концу, приходится проматывать на пару секунд в тех местах, но что поделать, другого нет.

Создавать темы 16-Янв-2012 19:20

[Профиль]  [ЛС] 

tvit

Стаж: 5 лет 7 месяцев

Сообщений: 5

отанга рахмат

Создавать темы 18-Янв-2012 21:56

[Профиль]  [ЛС] 

Mixer City ®

Стаж: 6 лет 8 месяцев

Сообщений: 754

Симпатии: 63

Всё, залил файл по новой, файл - без ошибок, хотите, можете скачать заново.

Создавать темы 23-Янв-2012 00:21

[Профиль]  [ЛС] 

Jamik656

Стаж: 5 лет 7 месяцев

Сообщений: 32

Скоростииииииииииииииииииииии

Создавать темы 07-Фев-2012 08:21

[Профиль]  [ЛС] 

Jamik656

Стаж: 5 лет 7 месяцев

Сообщений: 32

а чё так медленно качает? сиды, скорости дайте

Создавать темы 07-Фев-2012 17:13

[Профиль]  [ЛС] 
Показать сообщения:    
Ответить на тему

Текущее время: 24-Авг 11:59

Часовой пояс: UTC + 5



Вы не можете начинать темы
Вы не можете отвечать на сообщения
Вы не можете редактировать свои сообщения
Вы не можете удалять свои сообщения
Вы не можете голосовать в опросах
Вы не можете прикреплять файлы к сообщениям
Вы не можете скачивать файлы