Discovery: Как это сделано ? Сезон 9 [серии 3] / How it's made? Season 9 (Discovery Channel) [2008 г., Документальный, HDTV]

Ответить на тему
 

tima_3dmax ®

Стаж: 5 лет 9 месяцев

Сообщений: 15

Симпатии: 5

Discovery: Как это сделано ? Сезон 9 [серии 3] / How it's made? Season 9
Год выпуска: 2008
Жанр: Документальный
Продолжительность: ~ 22 минуты на серию
Режиссер: Discovery Channel
Описание: Вам интересно, как делают привычные, обыденные вещи? Discovery Channel представляет новые серии фильма "Как это работает", который приглашает зрителей за кулисы производства самых обычных предметов начиная с хоккейных шайб и ручных пил и кончая буровыми долотами и замороженной картошкой фри. Передача " Как это работает" показывает, как делают эти обманчиво простые вещи. Мы каждый день пользуемся тысячами банальных предметов, но не очень просто понять, как на самом деле делают алюминиевые лестницы, шлемы пожарных, спички и блоки двигателей. Передача " Как это работает" запечатлела десятки конвейеров, на которых сырье превращается в готовые изделия прямо на глазах у зрителя. Удивительно, но большинство привычных и "простых" вещей делают на высокотехнологичном оборудовании на заводах по всему миру.
Доп. информация:
9ый сезон
Серия 03 - деревянная посуда, бензопилы, картофельные чипсы, лопатки компрессора турбо реактивного двигателя.
Серия 05 - Матрицы цифровых камер (УЗС[CCD]), бортовое питание(еда в самолете), бумажные стаканчики, трубы(музыкальный инструмент).
Серия 06 - висячие замки,машинки для стрижки волос, деревянные башмаки, синтетическая кожа.
P.s.скачавшим, просьба ставить "Спасибо" - чтобы мотивировать на дальнейшее выкладывание новых серий.
Качество: HDTV
Формат: AVC
Видео кодек: H.26x
Аудио кодек: AC3
Видео: MPEG4 Video (H264) 1920x1080, 25 fps, H.264, ~ 8000 kbps
Аудио: Russian:Dolby 48 kHz, AC3, 6 ch, 384 kbps
МедиаИнфа:
Format : MPEG-TS
File size : 1.34 GiB
Duration : 22mn 5s
Overall bit rate : 8 650 Kbps
Video
ID : 325 (0x145)
Menu ID : 1 (0x1)
Format : AVC
Format/Info : Advanced Video Codec
Format profile : [email protected]
Format settings, CABAC : Yes
Format settings, ReFrames : 4 frames
Codec ID : 27
Duration : 22mn 6s
Bit rate : 7 834 Kbps
Width : 1 920 pixels
Height : 1 080 pixels
Display aspect ratio : 16:9
Frame rate : 25.000 fps
Standard : Component
Color space : YUV
Chroma subsampling : 4:2:0
Bit depth : 8 bits
Scan type : Interlaced
Scan order : Top Field First
Bits/(Pixel*Frame) : 0.151
Stream size : 1.21 GiB (91%)
Language : English
Color primaries : BT.709-5, BT.1361, IEC 61966-2-4, SMPTE RP177
Transfer characteristics : BT.709-5, BT.1361
Matrix coefficients : BT.709-5, BT.1361, IEC 61966-2-4 709, SMPTE RP177
Audio
ID : 405 (0x195)
Menu ID : 1 (0x1)
Format : AC-3
Format/Info : Audio Coding 3
Mode extension : CM (complete main)
Codec ID : 129
Duration : 22mn 6s
Bit rate mode : Constant
Bit rate : 384 Kbps
Channel(s) : 6 channels
Channel positions : Front: L C R, Side: L R, LFE
Sampling rate : 48.0 KHz
Bit depth : 16 bits
Compression mode : Lossy
Delay relative to video : 48ms
Stream size : 60.7 MiB (4%)
Language : Russian

Скриншоты





Последний раз редактировалось: tima_3dmax (2012-02-07 23:11), всего редактировалось 1 раз

Создавать темы 20-Янв-2012 07:45

[Профиль]  [ЛС] 

shohruh_0777

Стаж: 6 лет 9 месяцев

Сообщений: 41

Просьба: НЕ УХОДИТЕ С РАЗДАЧИ!!! И пожалуйста, прибавьте скорости!!!

Создавать темы 20-Янв-2012 15:09

[Профиль]  [ЛС] 

victor0778

Стаж: 6 лет 7 месяцев

Сообщений: 1670

Симпатии: 142

здесь точно Формат: AVI

Создавать темы 21-Янв-2012 02:01

[Профиль]  [ЛС] 

pumma

Стаж: 6 лет 7 месяцев

Сообщений: 64

Симпатии: 1

проверьте по быстрее ))

Создавать темы 21-Янв-2012 13:16

[Профиль]  [ЛС] 

Топик был перенесен из форума Discovery в форум Документальные фильмы


victor0778

Создавать темы 07-Фев-2012 23:34

 

bobkli

Стаж: 4 года 6 месяцев

Сообщений: 27

Симпатии: 1

есть новые серии

Создавать темы 11-Апр-2013 17:03

[Профиль]  [ЛС] 
Показать сообщения:    
Ответить на тему

Текущее время: 22-Сен 09:31

Часовой пояс: UTC + 5



Вы не можете начинать темы
Вы не можете отвечать на сообщения
Вы не можете редактировать свои сообщения
Вы не можете удалять свои сообщения
Вы не можете голосовать в опросах
Вы не можете прикреплять файлы к сообщениям
Вы не можете скачивать файлы