Поиски мира Гарри Поттера / Discovering the Real World of Harry Potter (Shaun Trevisick) [2001 г., Документальный, SATRip]

Ответить на тему
 

Mr_ALo ®

Стаж: 7 лет 10 месяцев

Сообщений: 367

Симпатии: 20

Поиски мира Гарри Поттера / Discovering the Real World of Harry Potter Год выпуска: 2001
Страна: Великобритания
Жанр: Документальный
Продолжительность: 00:47:04
Перевод:Профессиональный (одноголосый)
Режиссер: Shaun Trevisick
В ролях: Хью Лори, Дж.К. Роулинг, Гэвин Скотт
Описание: В поисках реального мира Гарри Поттера. Исследование идет по шагам легендарной книги Джоан Роллинг "Гарри Поттер"
Качество: SATRip
Формат: AVI
Видео: DivX 720x540 25.000 fps, 2 097 Kbps
Аудио: MP3 48.0 KHz 2 channel, 192 Kbps

MediaInfo

General
Complete name : I:\Films\Открывая настоящий мир Гарри Поттера 2001 SATRip.avi
Format : DivX
Format/Info : Hack of AVI
File size : 774 MiB
Duration : 47mn 4s
Overall bit rate : 2 299 Kbps
Video
ID : 0
Format : MPEG-4 Visual
Format settings, BVOP : No
Format settings, QPel : No
Format settings, GMC : No warppoints
Format settings, Matrix : Default (H.263)
Codec ID : DX50
Codec ID/Hint : DivX 5
Duration : 47mn 4s
Bit rate : 2 097 Kbps
Width : 720 pixels
Height : 540 pixels
Display aspect ratio : 4:3
Frame rate : 25.000 fps
Color space : YUV
Chroma subsampling : 4:2:0
Bit depth : 8 bits
Scan type : Progressive
Compression mode : Lossy
Bits/(Pixel*Frame) : 0.216
Stream size : 706 MiB (91%)
Title : Video
Writing library : DivX 6.2.5 (UTC 2006-06-16)
Audio
ID : 1
Format : MPEG Audio
Format version : Version 1
Format profile : Layer 3
Mode : Joint stereo
Mode extension : MS Stereo
Codec ID : 55
Codec ID/Hint : MP3
Duration : 47mn 4s
Bit rate mode : Constant
Bit rate : 192 Kbps
Channel(s) : 2 channels
Sampling rate : 48.0 KHz
Compression mode : Lossy
Stream size : 64.6 MiB (8%)
Alignment : Split accross interleaves
Interleave, duration : 40 ms (1.00 video frame)
Interleave, preload duration : 500 ms
Title : Audio
Writing library : LAME3.96

Скриншоты



Создавать темы 23-Янв-2012 13:17

[Профиль]  [ЛС] 

Jokero

Стаж: 6 лет 6 месяцев

Сообщений: 176

Симпатии: 4

Классное наверное? а что там поподробно можно описать??

Создавать темы 23-Янв-2012 19:34

[Профиль]  [ЛС] 

david

Стаж: 7 лет 4 месяца

Сообщений: 467

Симпатии: 12

Классное наверное? а что там поподробно можно описать??
скорее всего -- места съемок

Создавать темы 23-Янв-2012 19:50

[Профиль]  [ЛС] 

Jokero

Стаж: 6 лет 6 месяцев

Сообщений: 176

Симпатии: 4

Качаем, но скорость как у черепахи

Создавать темы 16-Фев-2012 21:43

[Профиль]  [ЛС] 

AneliaRose

Стаж: 5 лет 8 месяцев

Сообщений: 35

Симпатии: 3

Дайте скорости(((

Создавать темы 10-Июн-2012 12:50

[Профиль]  [ЛС] 

dilshod5254

Стаж: 6 лет 6 месяцев

Сообщений: 106

Симпатии: 14

Классное наверное? а что там поподробно можно описать??
скорее всего -- места съемок
эта тайна?

Создавать темы 18-Авг-2012 15:54

[Профиль]  [ЛС] 

sanjar_0009

Стаж: 5 лет 3 месяца

Сообщений: 50

Симпатии: 2

sad

Создавать темы 08-Сен-2012 11:26

[Профиль]  [ЛС] 
Показать сообщения:    
Ответить на тему

Текущее время: 22-Окт 17:00

Часовой пояс: UTC + 5



Вы не можете начинать темы
Вы не можете отвечать на сообщения
Вы не можете редактировать свои сообщения
Вы не можете удалять свои сообщения
Вы не можете голосовать в опросах
Вы не можете прикреплять файлы к сообщениям
Вы не можете скачивать файлы