WWE: Wrestlemania XXVI [2010 / Рестлинг / HDTVRip]

Страницы :  1, 2  След.

Ответить на тему
 

TimaAnarki ®

Стаж: 5 лет 8 месяцев

Сообщений: 45

Симпатии: 1

WWE: Wrestlemania XXVI [2010 / Рестлинг / HDTVRip] Год выпуска: 2010
Вид спорта: Рестлинг
Участники: Рестлеры WWE
Продолжительность: 03:56:24
Комментарий: Профессиональный, на английском (многоголосный (Jerry Lawler, Michael Cole, закадровый)-Описание: Главное PPV года от WWE-Дополнительно:

Список боев

-Качество: HDTVRip
Формат: AVI
Видео кодек: XviD
Аудио кодек: mp3
Видео: XviD, 624x532, 29.97 fps, 1 182 kbps
Аудио: mp3, 48 kHz, 2 ch (stereo), 120 kbps

MediaInfo

General
Complete name                    : D:\Wrestlemania XXVI\Wrestlemania 26\WWE Wrestlemania 26.avi
Format                           : AVI
Format/Info                      : Audio Video Interleave
Format profile                   : OpenDML
File size                        : 2.19 GiB
Duration                         : 3h 56mn
Overall bit rate                 : 1 323 Kbps
Writing application              : VirtualDubMod 1.5.10.2 (build 2540/release)
Writing library                  : VirtualDubMod build 2540/release
Video
ID                               : 0
Format                           : MPEG-4 Visual
Format profile                   : Advanced [email protected]
Format settings, BVOP            : Yes
Format settings, QPel            : No
Format settings, GMC             : No warppoints
Format settings, Matrix          : Default (H.263)
Codec ID                         : XVID
Codec ID/Hint                    : XviD
Duration                         : 3h 56mn
Bit rate                         : 1 182 Kbps
Width                            : 624 pixels
Height                           : 352 pixels
Display aspect ratio             : 16:9
Frame rate                       : 29.970 fps
Color space                      : YUV
Chroma subsampling               : 4:2:0
Bit depth                        : 8 bits
Scan type                        : Progressive
Bits/(Pixel*Frame)               : 0.180
Stream size                      : 1.95 GiB (89%)
Writing library                  : XviD 1.3.0.dev55
Audio
ID                               : 1
Format                           : MPEG Audio
Format version                   : Version 1
Format profile                   : Layer 3
Mode                             : Joint stereo
Mode extension                   : MS Stereo
Codec ID                         : 55
Codec ID/Hint                    : MP3
Duration                         : 3h 56mn
Bit rate mode                    : Variable
Bit rate                         : 120 Kbps
Channel(s)                       : 2 channels
Sampling rate                    : 48.0 KHz
Stream size                      : 209 MiB (9%)
Alignment                        : Aligned on interleaves
Interleave, duration             : 24 ms (0.72 video frame)
Interleave, preload duration     : 409 ms
Writing library                  : LAME3.90.
Encoding settings                : -m j -V 4 -q 2 -lowpass 17.6 --abr 120

Скриншоты








Последний раз редактировалось: TimaAnarki (2012-01-25 20:33), всего редактировалось 1 раз

Создавать темы 23-Янв-2012 19:24

[Профиль]  [ЛС] 

KapTolllKa

Стаж: 5 лет 8 месяцев

Сообщений: 8

И как скачать где торрент файл?

Создавать темы 23-Янв-2012 21:44

[Профиль]  [ЛС] 

TimaAnarki ®

Стаж: 5 лет 8 месяцев

Сообщений: 45

Симпатии: 1

На премодерации торрент стоит же...

Создавать темы 23-Янв-2012 22:35

[Профиль]  [ЛС] 

slap_nuts

Стаж: 7 лет 3 месяца

Сообщений: 85

+1 Больше МАНИИ

Создавать темы 23-Янв-2012 23:01

[Профиль]  [ЛС] 

Pendalf

Стаж: 6 лет 3 месяца

Сообщений: 416

Симпатии: 34

TimaAnarki, подправил оформление. Вам осталось залить скриншоты в оригинальном разрешении, как в источнике и указать язык комментариев.
Чтобы сделать скриншоты:
Откройте файл в Media player classic, остановите в понравившемся месте и нажмите alt+I. Выберите папку для сохранения (сохранять желательно в формате png). Повторите процедуру три раза.
Отпишитесь в ЛС, как исправите

Создавать темы 23-Янв-2012 23:40

[Профиль]  [ЛС] 

Vovo4ka

Стаж: 6 лет 2 месяца

Сообщений: 160

Симпатии: 11

Спасибо. Если есть еще, Выкладывайте.

Создавать темы 24-Янв-2012 01:25

[Профиль]  [ЛС] 

KapTolllKa

Стаж: 5 лет 8 месяцев

Сообщений: 8

у меня есть royal rumble

Создавать темы 25-Янв-2012 13:15

[Профиль]  [ЛС] 

Undertaker

Стаж: 5 лет 8 месяцев

Сообщений: 30

Закинь роял рабмл пусть больше реслинга будет. А за манию спасибо щас качать буду.

Создавать темы 27-Янв-2012 14:20

[Профиль]  [ЛС] 

KapTolllKa

Стаж: 5 лет 8 месяцев

Сообщений: 8

Ok ток немного позже.

Создавать темы 28-Янв-2012 18:06

[Профиль]  [ЛС] 

rey mysterio

Стаж: 5 лет 8 месяцев

Сообщений: 164

Раздавать када будете:)?

Создавать темы 01-Фев-2012 18:53

[Профиль]  [ЛС] 

Kroys

Стаж: 5 лет 11 месяцев

Сообщений: 187

Симпатии: 1

да серьёз реслинга побольше надо а то оч мало :(

Создавать темы 01-Фев-2012 22:49

[Профиль]  [ЛС] 

DOBER_

Стаж: 5 лет 8 месяцев

Сообщений: 56

Симпатии: 1

Уре уре уре !!!Даваи еше !Даеш рестлинг

Создавать темы 02-Фев-2012 17:28

[Профиль]  [ЛС] 

rey mysterio

Стаж: 5 лет 8 месяцев

Сообщений: 164

Раздавать будете ?

Создавать темы 05-Фев-2012 10:34

[Профиль]  [ЛС] 

Сарвар

Стаж: 5 лет 8 месяцев

Сообщений: 20

Ребят кагда раздача ?

Создавать темы 05-Фев-2012 20:58

[Профиль]  [ЛС] 

rey mysterio

Стаж: 5 лет 8 месяцев

Сообщений: 164

соскальки и доскальки раздаёте ?

Создавать темы 15-Фев-2012 22:40

[Профиль]  [ЛС] 
Показать сообщения:    
Ответить на тему

Текущее время: 22-Сен 09:37

Часовой пояс: UTC + 5



Вы не можете начинать темы
Вы не можете отвечать на сообщения
Вы не можете редактировать свои сообщения
Вы не можете удалять свои сообщения
Вы не можете голосовать в опросах
Вы не можете прикреплять файлы к сообщениям
Вы не можете скачивать файлы