Как Целоваться Лучше Всех В Мире! [2011 г.]

Ответить на тему
 

habibiy ®

Стаж: 5 лет 7 месяцев

Сообщений: 3

Как Целоваться Лучше Всех В Мире!
Автор: Павел Гуляев
Год выпуска: 2011
Язык: русский
Продолжительность: 00:02:24
Описание: Не Умеешь Целоваться? Узнай Технику И Все Секреты!
Прямо сейчас Ты можешь узнать из этого видео:
Живую демонстрацию всех самых убойных фишек поцелуя
Техники, которые ВЫНЕСУТ мозг, Твоей девушке
Что чувствовать, когда Ты будешь целоваться, для передачи энергии
И огромное множество просто полезных вещей
Качество: HDRip
Формат: Windows Media
Видео кодек: WMV
Аудио кодек: WMA
Видео: Windows Media Video 9 1280x720 29.97fps 6099kbps
Аудио: Windows Media Audio 48000Hz stereo 192kbps

MediaInfo

Видео
Формат : Windows Media
Размер файла : 97,6 Мбайт
Продолжительность : 2 м. 23 с.
Режим общего битрейта : Постоянный
Общий поток : 5697 Кбит/сек
Максимальный общий битрейт : 6342 Кбит/сек
Дата кодирования : UTC 2011-11-01 08:45:09.523
SfOriginalFPS : 299700
Видео
Идентификатор : 2
Формат : VC-1
Профиль формата : [email protected]
Идентификатор кодека : WMV3
Идентификатор кодека/Информация : Windows Media Video 9
Идентификатор кодека/Подсказка : WMV3
Описание кодека : Windows Media Video 9 - Professional
Продолжительность : 2 м. 23 с.
Вид битрейта : Постоянный
Битрейт : 6099 Кбит/сек
Ширина : 1280 пикселей
Высота : 720 пикселей
Соотношение сторон : 16:9
Частота кадров : 29,970 кадров/сек
Битовая глубина : 8 бит
Тип развёртки : Прогрессивная
Метод сжатия : С потерями
Бит/(Пиксели*Кадры) : 0.221
Размер потока : 105 Мбайт
Язык : Russian
Аудио
Идентификатор : 1
Формат : WMA
Версия формата : Version 2
Идентификатор кодека : 161
Идентификатор кодека/Информация : Windows Media Audio
Описание кодека : Windows Media Audio 9.2 - 192 kbps, 48 kHz, stereo (A/V) 1-pass CBR
Продолжительность : 2 м. 23 с.
Вид битрейта : Постоянный
Битрейт : 192 Кбит/сек
Каналы : 2 канала
Частота : 48,0 КГц
Битовая глубина : 16 бит
Размер потока : 3,29 Мбайт (3%)
Язык : Russian

Скриншоты





Последний раз редактировалось: habibiy (2012-01-24 23:08), всего редактировалось 1 раз

Создавать темы 24-Янв-2012 22:22

[Профиль]  [ЛС] 

Tiger Fors

Стаж: 5 лет 4 месяца

Сообщений: 19

ваще туфта полная я аж растроился качать нестоит(((((((

Создавать темы 17-Июн-2012 01:46

[Профиль]  [ЛС] 

Whitejin

Стаж: 6 лет 4 месяца

Сообщений: 175

Симпатии: 11

лучше сразу учиться на практике, а не смотреть подобное видео )

Создавать темы 05-Сен-2012 07:53

[Профиль]  [ЛС] 

dikiy

Стаж: 4 года 4 месяца

Сообщений: 38

качать не стоет

Создавать темы 12-Апр-2013 15:48

[Профиль]  [ЛС] 

dikiy

Стаж: 4 года 4 месяца

Сообщений: 38

хахахахахахахахах

Создавать темы 13-Май-2013 21:01

[Профиль]  [ЛС] 
Показать сообщения:    
Ответить на тему

Текущее время: 19-Авг 03:09

Часовой пояс: UTC + 5



Вы не можете начинать темы
Вы не можете отвечать на сообщения
Вы не можете редактировать свои сообщения
Вы не можете удалять свои сообщения
Вы не можете голосовать в опросах
Вы не можете прикреплять файлы к сообщениям
Вы не можете скачивать файлы