Создание плагина для WordPress [2011 г.]

Ответить на тему
 

jared5000 ®

Стаж: 6 лет 6 месяцев

Сообщений: 23

Создание плагина для WordPress
Производитель: Андрей Морковин
Год выпуска: 2011
Язык: русский

Описание: В курсе публикаций я постараюсь доходчиво пояснить основные принципы создания плагинов для WordPress, а также мы, в очередной раз, попрактикуемся в программировании на PHP.
Тема программирования уже затрагивалась в бесплатном видеокурсе по PHP.
Постановка задачи
По традиции предлагаю приступить к изучению на основе реальной задачи: написать плагин для интеграции платежной системы Интеркасса в блог на wordpress.
Как вы могли заметить, на моем блоге имеется возможность воспользоваться платными услугами быстрого скачивания видеокурсов. Задача оплаты решалась посредством сервиса Digiseller. Данный сервис позволяет легко подключить платежную систему WebMoney к блогу.
Но Digiseller имеет явные минусы:
Оплата возможна только посредством WebMoney.
Продавая ссылки на скачивание видеокурсов я вынужден отдавать пользователю реальный URL-адрес архива, без возможности генерации псевдоссылок, уникальных для каждого посетителя.
Однако простота и быстрота реализации прельщает и я долгое время пользовался данным решением. Я даже опубликовал инструкцию по работе с Digiseller.
Но пришло время изменить старому решению в пользу удобства посетителей.
Мы приступим к разработке плагина, позволяющего, посредством всех возможных способов оплаты, предлагаемых Интеркассой, приобретать услугу скачивания zip-архивов с сервера продавца по уникальным псевдоссылкам с ограниченным сроком действия.
Администратор через админку блога сможет выставлять новые товары на продажу, изменять срок действия псевдоссылки и выполнять настройку базовых функций плагина.
Плагин будет работать на любом WordPress-блоге, обеспечивая хранения информации о товарах, проверку оплаты, проводимой сервисом Интеркасса, а также отправку сгенерированных псевдоссылок на эл. почту покупателя.
Почему именно Интеркасса – данный сервис позволяет оплачивать услуги всеми популярными платежными системами (включая американский лидер рынка PayPal), а также он работает с терминалами Украины, что особенно приятно, т.к. я проживаю в Мариуполе.
General
Complete name : D:\torrents\WP Plugin\1.wmv
Format : Windows Media
File size : 39.6 MiB
Duration : 23mn 57s
Overall bit rate mode : Variable
Overall bit rate : 231 Kbps
Maximum Overall bit rate : 2 806 Kbps
Movie name : 1
Encoded date : UTC 2011-11-20 19:00:59.620
Video
ID : 2
Format : VC-1
Format profile : [email protected]
Codec ID : WMV3
Codec ID/Info : Windows Media Video 9
Codec ID/Hint : WMV3
Description of the codec : Windows Media Video 9
Duration : 23mn 57s
Bit rate mode : Variable
Bit rate : 172 Kbps
Width : 1 280 pixels
Height : 720 pixels
Display aspect ratio : 16:9
Frame rate : 15.000 fps
Bit depth : 8 bits
Scan type : Progressive
Compression mode : Lossy
Bits/(Pixel*Frame) : 0.012
Stream size : 29.4 MiB (74%)
Language : English (US)
Audio
ID : 1
Format : WMA
Format version : Version 2
Codec ID : 161
Codec ID/Info : Windows Media Audio
Description of the codec : Windows Media Audio 9 - 48 kbps, 44 kHz, mono (A/V) 1-pass CBR
Duration : 23mn 57s
Bit rate mode : Constant
Bit rate : 48.0 Kbps
Channel(s) : 1 channel
Sampling rate : 44.1 KHz
Bit depth : 16 bits
Stream size : 8.23 MiB (21%)
Language : English (US)
Всего 5 видео уроков

Скриншоты





Последний раз редактировалось: jared5000 (2012-01-28 08:35), всего редактировалось 2 раз(а)

Создавать темы 27-Янв-2012 01:40

[Профиль]  [ЛС] 

nadezcda

Стаж: 7 лет 1 месяц

Сообщений: 454

Симпатии: 303

Добавить полные тех.данные аудио/видео; скриншоты должны соответствовать размеру видео.

Создавать темы 27-Янв-2012 18:08

[Профиль]  [ЛС] 

jared5000 ®

Стаж: 6 лет 6 месяцев

Сообщений: 23

Поправил

Создавать темы 28-Янв-2012 08:36

[Профиль]  [ЛС] 
Показать сообщения:    
Ответить на тему

Текущее время: 18-Дек 04:33

Часовой пояс: UTC + 5



Вы не можете начинать темы
Вы не можете отвечать на сообщения
Вы не можете редактировать свои сообщения
Вы не можете удалять свои сообщения
Вы не можете голосовать в опросах
Вы не можете прикреплять файлы к сообщениям
Вы не можете скачивать файлы